&title=Invisible Date
&artist=sweet ARMS
&first=0
&des=Kyono Natsumi
&lv_6=12+
&inote_6=(184){1},
(180){16},,,,,,,,,,35,,3q4[4:5]/5p4[4:5],,,,
{16},,,,,,,,,,,,,,,
{16},,,,,,,,,,,,64,,6pp5[4:5]/4q5[4:5],,
{16},,,,,,,,,,,,,,,,
{16},,,,,,,,,,,,,35,,
{16}3qq4[4:5]/5pp4[4:5],,,,,,,,,,,,,,,,
{16},,,,,,,,,,,,,,18,
{16},8z4[4:5]/1,,,,,,,,,,,,,,
{16},3b,,,,,,,,,,,,,,,,
(184){16},,,,,,,,,,,,,,,,
{16}4,,3h[4:1]/5,,,,6^1[4:1],,,,1^4[4:1],,,,4pp7[8:5],,
{16},,,,1,,,,2,,,,3,,,,
{16}5,,4/6h[4:1],,,,3^8[4:1],,,,8^5[4:1],,,,5qq2[8:5],,
{16},,,,,,,,7,,,,,,,,
{16}4,,3-6[4:1]/5,,,,6-1[4:1],,,,1-4[4:1],,,,4,,
{16},,,,5,6,7,8,1h[4:1],,,,5,4,3,2,
{16}1-4[8:1]/5-8[8:1],,,,,,,,5^2[8:1]/1^6[8:1],,,,,,,,
{16}1V35[8:1]/5V71[8:1],,,,,,,,2^7[8:1]/6^3[8:1],,,,,,,,
{16}2-5[8:1]/6-1[8:1],,,,,,,,2V86[8:1]/6V42[8:1],,,,,,,,
{16}1^4[8:1]/5^8[8:1],,,,,,,,2bp6[8:1]/6bp2[8:1],,,,,,,,
{16}3h[4:1],,,,4,,,,5h[4:1],,,,4,,,,
{16}3p6[4:1],,6,,6q3[4:1],,,,8,,8,,7,,,,
{16}6h[4:1],,,,5,,,,4h[4:1],,,,5,,,,
{16}6q3[4:1],,3,,3p6[4:1],,,,1,,1,,2,,,,
{16}3h[4:1],,,,5,,,,6h[4:1],,,,4,,,,
{16}4>8[4:1],,8,,8q4[4:1],,,,7,,6,,5,,,,
{16}3h[4:1]/4h[4:1],,,,,,,,6h[4:1]/5h[4:1],,,,,,,,
{16}3qq3[4:1]/6pp6[4:1],,,,36,,,,,,45,,45,,45,,
{16}3-8[8:1],,,,5-1[8:1],,,,2-5[8:1],,,,6-2[8:1],,,,
{16}1v4[8:1],,,,5V71[4:1],,,,1-5[8:1],,2,,3,,,,
{16}6-1[8:1],,,,4-8[8:1],,,,7-4[8:1],,,,3-7[8:1],,,,
{16}8v5[8:1],,,,4V28[4:1],,,,8-4[8:1],,7,,6,,,,
{16},,1-4[8:1],,4,,1,,,,8-5[8:1],,5,,8,,
{16},,3v8[4:1],,3,,8q4[4:1],,,,5,,6,,7,,
{16}8-5[8:1]*-4[8:1],,,,,,,,2-5[8:1]*-6[8:1],,,,,,,,
{16}7-2[8:1],,,,3,,3-8[8:1],,,,7,,6<5[8:29],,6,,
{16}4h[8:3],,,,,,,,,,,,,,,,
{16}5h[8:3],,,,,,,,,,,,,,,,
{16}4h[8:3],,,,,,,,,,,,,,,,
{16}3h[8:3],,,,,,,,,,,,,,,,
{16}3b/5h[8:3],,,,,,4,6,5-1[8:1],,,,,,7-4[8:1],,
{16},,3,,2,,5,,62,,3,,6,4,5,,
{16}2-5[8:1]/4,,,,7,,7-4[8:1],,,,1,,1>8[4:2],,,,
{16}1/2h[4:3],,,,,,,,,,,,{4}1b,
{16}3b/7b,,8bv5[8:1]/4b>8[4:1],,,,8V64[4:1],,,,4<1[8:3]*p2[8:3],,,,,,
{16},,,,,,,,2/7h[16:6],,,,,,,,
{16}26,,1v4[8:1]/5<1[4:1],,,,1V35[4:1],,,,5>8[8:3]*q7[8:3],,,,,,
{16},,,,,,,,4h[8:1]/6h[8:1],,,,2h[8:1]/8h[8:1],,,,
{16}3b/7b,,8b<4[4:1]/4bv1[8:1],,,,4V68[4:1],,,,8v6[8:3]*V24[8:3],,,,,,
{16},,,,,,,,3,,,,26,,,,
{16}1b^4[8:1]/5b^8[8:1],,,,,,,,5b-2[8:1]/1b-6[8:1],,,,,,,,
{16}1bq5[8:1]/5bq1[8:1],,,,,,,,2b-7[8:1]/6b-3[8:1],,,,,,,,
{4}8b^5[8:1]/4b,{16}1,,1-5[8:1],,,,1/6-1[8:1],,,,46,,
{16},,2-5[8:1],,3,,2-7[8:1]/6-1[8:1],,,,26,,,,4-8[8:1],,
{8}3,2-5[8:1]/4,{16},,6-1[8:1]/2,,,,6/3>6[4:1],,,,43,,
{16},,,,5-1[8:1],,,,5,,4v7[16:3]*p8[16:3],,,,4,,
{16},,,,61,,,,17,,2-4[8:1],,4,,2b,,
{16},,6,,7,,8h[4:1],,,,5-1[8:1],,1,,5b,,
{16},,8,,7,,6h[4:1],,,,1-5[8:1],,5,,1b,,
{16},,4,6,4,6,3,5,3,5,2,8,2,8,7,6,
{16}5<8[4:1],,,,8>3[4:1],,,,3^6[4:1],,,,6^1[4:1],,,,
{16}1^4[4:1],,,,4qq4[4:2]*pp4[4:2],,,,,,,,,,,,
{16},,,,4V28[4:1],,,,8V64[4:1],,,,4V28[4:1],,,,
{16}8V64[4:1],,,,4pp4[4:2]*qq4[4:2],,,,,,,,,,,,
{16},,,,18,,,,27,,,,36,,,,
{16}45,,6,,45,,3,,56,,7,,34,,2,,
{16}46,,8,,35,,1,,57,,8,,24,,1,,
{16}56,,82,,34,,17,,45,,13,,68,,4bv2[8:13]/2,,
{16}5bv7[32:49]/7,,,,,,,,,,,,,,,,
{16},,,,,,,,,,,,,,,,
{16}57,,46,,35,,24,,1-5[8:1],8,2,,7/1b,,,,
{16}4,,3-8[8:1]/5,,,,7-4[8:1]/3,,,,1q6[4:1]*v6[4:1]/7,,,,1,,
{16},,,,,,3,5,{12}4,,4,,4,,
{16}5,,6-1[8:1]/4,,,,2-5[8:1]/6,,,,8<4[4:1]/2,,,,8,,
{16},,3,,2,,1,,{16}81,,,81,,,18,,
{16}2,,3h[4:1],,,,5h[4:1],,4,,4h[4:1],,,,6h[4:1],,
{16},,,,1,8,1,8,{12}1,,37,,46,,
{8}5b,4,6,3,5,4,6,3,
{8}5,4,6,3,5,4,6,3,
{8}5,4,6,3,5,4,6,3,
{8}5,4,6,3,5,4,6,{24}3,2,1,
{16}8z4[4:6]*-3[32:29],,,,,,,,,,,,,,,,
{16},,,,,,,,,,,,
E
&inote_7=(184){1},
{32},{16},,,,,,,,,,35,,3q4[4:5]/5p4[4:5],,,,
{16},,,,,,,,,,,,,,,{32},
{16},,,,,,,,,,,,64,,6pp5[4:5]/4q5[4:5],,
{16},,,,,,,,,,,,,,,,
{32},{16},,,,,,,,,,,,,35,,
{16}3qq4[4:5]/5pp4[4:5],,,,,,,,,,,,,,,,{32},
{16},,,,,,,,,,,,,,,18,
{16},8z4[4:5]/1,,,,,,,,,,,,,,{32},
{16}3b,,,,,,,,,,,,,,,,{32},
{16},,,,,,,,,,,,,,,,
{16}4,,3h[4:1]/5,,,,6^1[4:1],,,,1^4[4:1],,,,4pp7[8:5],,
{16},,,,1,,,,2,,,,3,,,,
{16}5,,4/6h[4:1],,,,3^8[4:1],,,,8^5[4:1],,,,5qq2[8:5],,
{16},,,,,,,,7,,,,,,,,
{16}4,,3-6[4:1]/5,,,,6-1[4:1],,,,1-4[4:1],,,,4,,
{16},,,,5,6,7,8,1h[4:1],,,,5,4,3,2,
{16}1-4[8:1]/5-8[8:1],,,,,,,,5^2[8:1]/1^6[8:1],,,,,,,,
{16}1V35[8:1]/5V71[8:1],,,,,,,,2^7[8:1]/6^3[8:1],,,,,,,,
{16}2-5[8:1]/6-1[8:1],,,,,,,,2V86[8:1]/6V42[8:1],,,,,,,,
{16}1^4[8:1]/5^8[8:1],,,,,,,,2bp6[8:1]/6bp2[8:1],,,,,,,,
{16}3h[4:1],,,,4,,,,5h[4:1],,,,4,,,,
{16}3p6[4:1],,6,,6q3[4:1],,,,8,,8,,7,,,,
{16}6h[4:1],,,,5,,,,4h[4:1],,,,5,,,,
{16}6q3[4:1],,3,,3p6[4:1],,,,1,,1,,2,,,,
{16}3h[4:1],,,,5,,,,6h[4:1],,,,4,,,,
{16}4>8[4:1],,8,,8q4[4:1],,,,7,,6,,5,,,,
{16}3h[4:1]/4h[4:1],,,,,,,,6h[4:1]/5h[4:1],,,,,,,,
{16}3qq3[4:1]/6pp6[4:1],,,,36,,,,,,45,,45,,45,,
{16}3-8[8:1],,,,5-1[8:1],,,,2-5[8:1],,,,6-2[8:1],,,,
{16}1v4[8:1],,,,5V71[4:1],,,,1-5[8:1],,2,,3,,,,
{16}6-1[8:1],,,,4-8[8:1],,,,7-4[8:1],,,,3-7[8:1],,,,
{16}8v5[8:1],,,,4V28[4:1],,,,8-4[8:1],,7,,6,,,,
{16},,1-4[8:1],,4,,1,,,,8-5[8:1],,5,,8,,
{16},,3v8[4:1],,3,,8q4[4:1],,,,5,,6,,7,,
{16}8-5[8:1]*-4[8:1],,,,,,,,2-5[8:1]*-6[8:1],,,,,,,,
{16}7-2[8:1],,,,3,,3-8[8:1],,,,7,,6<5[8:29],,6,,
{16}4h[8:3],,,,,,,,,,,,,,,,
{16}5h[8:3],,,,,,,,,,,,,,,,
{16}4h[8:3],,,,,,,,,,,,,,,,
{16}3h[8:3],,,,,,,,,,,,,,,,
{16}3b/5h[8:3],,,,,,4,6,5-1[8:1],,,,,,7-4[8:1],,
{16},,3,,2,,5,,62,,3,,6,4,5,,
{16}2-5[8:1]/4,,,,7,,7-4[8:1],,,,1,,1>8[4:2],,,,
{16}1/2h[4:3],,,,,,,,,,,,{4}1b,
{16}3b/7b,,8bv5[8:1]/4b>8[4:1],,,,8V64[4:1],,,,4<1[8:3]*p2[8:3],,,,,,
{16},,,,,,,,2/7h[16:6],,,,,,,,
{16}26,,1v4[8:1]/5<1[4:1],,,,1V35[4:1],,,,5>8[8:3]*q7[8:3],,,,,,
{16},,,,,,,,4h[8:1]/6h[8:1],,,,2h[8:1]/8h[8:1],,,,
{16}3b/7b,,8b<4[4:1]/4bv1[8:1],,,,4V68[4:1],,,,8v6[8:3]*V24[8:3],,,,,,
{16},,,,,,,,3,,,,26,,,,
{16}1b^4[8:1]/5b^8[8:1],,,,,,,,5b-2[8:1]/1b-6[8:1],,,,,,,,
{16}1bq5[8:1]/5bq1[8:1],,,,,,,,2b-7[8:1]/6b-3[8:1],,,,,,,,
{4}8b^5[8:1]/4b,{16}1,,1-5[8:1],,,,1/6-1[8:1],,,,46,,
{16},,2-5[8:1],,3,,2-7[8:1]/6-1[8:1],,,,26,,,,4-8[8:1],,
{8}3,2-5[8:1]/4,{16},,6-1[8:1]/2,,,,6/3>6[4:1],,,,43,,
{16},,,,5-1[8:1],,,,5,,4v7[16:3]*p8[16:3],,,,4,,
{16},,,,61,,,,17,,2-4[8:1],,4,,2b,,
{16},,6,,7,,8h[4:1],,,,5-1[8:1],,1,,5b,,
{16},,8,,7,,6h[4:1],,,,1-4[8:1]*-6[8:1],,5,,1b,,
{16},,,,46,,3,4,3,4,2,8,2,8,7,6,
{16}5<8[4:1],,,,8>3[4:1],,,,3^6[4:1],,,,6^1[4:1],,,,
{16}1^4[4:1],,,,4qq4[4:2]*pp4[4:2],,,,,,,,,,,,
{16},,,,4V28[4:1],,,,8V64[4:1],,,,4V28[4:1],,,,
{16}8V64[4:1],,,,4pp4[4:2]*qq4[4:2],,,,,,,,,,,,
{16},,,,45,,,,36,,,,27,,,,
{16}1h[2:1]/8,,8,,8,,8,,2h[2:1],,3,,3,,3,,
{16}4h[2:1],,5,,5,,5,,6h[2:1],,4,,4,,4,,
{32}4,3,2,1,8,7,6,5,4,3,2,1,8,7,6,5,4,3,2,1,8,7,6,5,4,3,2,1,8,7,6,5v7[32:45],
{16}4bv2[8:11],,,,,,,,,,,,,,,,
{16},,,,,,,,,,,,,,,,
{16}57,,46,,35,,24,,1-5[8:1],8,2,,7/1b,,,,
{16}4,,3-8[8:1]/5,,,,7-4[8:1]/3,,,,1q6[4:1]*v6[4:1]/7,,,,1,,
{16},,,,,,3,5,{12}4,,4,,4,,
{16}5,,6-1[8:1]/4,,,,2-5[8:1]/6,,,,8<4[4:1]/2,,,,8,,
{16},,3,,2,,1,,{16}81,,,81,,,18,,
{16}2,,3h[4:1],,,,5h[4:1],,4,,4h[4:1],,,,6h[4:1],,
{16},,,,1,8,1,8,{12}1,,37,,46,,
{8}5b,4,6,3,5,4,6,3,
{8}5,4,6,3,5,4,6,3,
{8}5,4,6,3,5,4,6,3,
{8}5,4,6,3,5,4,6,{24}3,2,1,
{16}8z4[4:6]*-3[32:29],,,,,,,,,,,,,,,,
{16},,,,,,,,,,,,
E
