&title=Meteorite Lotus
&artist=wa.
&first=0.25
&des=sNeoE_a
&lv_5=14+
&des_5=sNeoE_a
&inote_5=
(208){4}6h[1:1],,{2}B6,
3h[1:1],B3,
6h[1:1],B7,
3h[1:1],B2,
{4}7h[1:1],6,5,{8}B4,B3,
{4}2h[2:1],{8}B1,B8,,,{4}C,
2h[1:1],3,4,{8}B5,B6,
{4}7h[2:1],{8}B8,B1,{2}Ch[8:3],
{32}1p7<3[4:11],2/8,3/7,4/6,{8}5p3>7b[8:21],{1},,,{4},{16}1/2,
8,7,6,4/5,3,2,1,
{8}7bx-4b[8:1],,,A4f/3bx-8b[8:1],,,{4}A8f/6bx-1b[8:1],
{8},A1f/2bx-5b[8:1],,,{2}7bx/A5f,
{4}6h[1:1],B7,B5,{8}C,B3,
{4}3h[2:1],{8}B2,B1,{2}Ch[8:3],
5/6-2[4:5],D8/E8,
A4/E4,{4}A1/E1,2,
{2}4/3-7[4:5],D2/E2,
A5/E6,{4}A8/E1,7,
6>3[4:3],,,3>7[1:1],
,,,,3h[1:1],
B2,B4,{8}C,B6,
{4}6h[2:1],{8}B7,B8,{4}Ch[4:1],{32}E7,E6,E5,E4,E3,E2,E1,E8,
{4}7bxh[1:2],6h[8:1],6h[8:1],6h[8:1],
8h[8:1],8h[8:1],8h[8:1],1b,
2bxh[1:2],3h[8:1],3h[8:1],3h[8:1],
4h[8:1],4h[8:1],4h[8:1],5b,
{8}6b-1b[8:1],,,A1f/8b-3b[8:1],,,{4}A3f/2b-5b[8:1],
{8},4b/A5f,,,{4}7b/B2,3b/B6,
{8}4/6,7,2/8,3,7/4,6,5/2,3,
6/4h[8:1],7,3/6h[8:1],2,7/3h[8:1],8,2/7h[8:1],1,
{4}7/8,{16}7/E1,,,B2,{8}7/E3,E4,{4}7/E5,
6,{16}6/E8,,,E1,{8}6/B1,B2,{24}6/D3/E3,A3,D4,A4,,,{8}5/7,
5/7,{16}5b/7h[8:1],4x,{8}3x,4/2,4/2,{16}4b/2h[8:1],5x,{8}6x,
1/7,1/7,{32}7b/1h[8:1],6x,5x,4x,{8}3x,{6}4b/2b,7b/5b,4b/3b,
{32}7b,6x,5x,4x,{8}3x,{32}2b,3x,4x,5x,{8}6x,{32}8b,7x,6x,5x,4x,3x,,,1b,2x,3x,4x,5x,6x,7x,8x,
1x,2x,3x,4x,5x,6x,7x,8x,1x,2x,3x,4x,{8}5x,{16}6b,5,{8}6,{16}3b,4,{8}3,
{32}5h[32:3],,,8,1,2,,,4h[32:3],,,1,8,7,,,5h[12:1],,,8,1,2,,,4h[12:1],,,1,8,7,,,{4}6/2b-8[8:1],
{32}7/2b-4[8:1],6x,{16}5x,{32},,,,5/2b-6[8:1],6x,{16}7x,{32},,,,8/2bw6b[32:3],7x,6x,5x,{8}4x,
{1}2b,
{4}6h[4:1],5h[4:1],4h[4:1],3h[4:1],
{8}6,5,4,3,6,5,4,3v8-2-4[8:3],
,4,5,6,7-4[8:1],{16}8x,8x,{4}7b,
{8}3/5,5,2/6,2,7/1,7,8/2,2,
3/8h[8:1],B2,7/1h[8:1],B6,2/5h[8:1],B3,6/4h[8:1],B7,
2/8,8,3/7,3,6/4,6,5/3,3,
2/5h[8:1],B3,6/4h[8:1],B7,3,{16}2,5,1,4,8,3,
{4}7b>3[8:3],{8}E8,7,,6V41[4:1],E7,6,
,3V15[4:1],E4,3,,8V62[4:1],E1,8,
,,5/1h[4:1],4,3,8/2h[4:1],7,6,
2b-7[8:1]/6b-3[8:1],2b/6b,,,8b-3[8:1]/4b-7[8:1],4b/8b,,,4/6,
7,2/8,B3/B4/C,{4}6h[4:1],4,
{8}5/3,2,7/1,B7/B6/C,{4}3h[4:1],5,
{8}4/6,7,2/8,B1/B2/C,{4}6h[4:1],3,
{8}5/3,2,7/1,C/B8/B1,{16},,7,3,6,2,5,1,
{4}2b/6h[4:1],2,{8}7/3,6,{4}3b/5h[4:1],
3,2/B4,2/B6,2/B8,
7b/3h[4:1],7,{8}2/6,3,{4}6b/4h[4:1],
6,7/E4,{8}3/7,6,5,4,
{32}5b/A2,D3,A3,D4,{8}5,5,{32}5b/E1,B1,{16}B2,{8}5,5,{32}3b/A6,D7,A7,D8,{8}3,
3,{32}3b/E5,B5,{16}B6,{8}3,3,{32}7b/A1,D2,A2,D3,{8}7,7,{32}7b/E5,B4,{16}B3,
{8}7,7,{32}1b/A5,D6,A6,D7,{8}1,1,{32}1b/E1,B8,{16}B7,{8}1,1,
{16}6b,6,6,6,6,6,{8}7bh[4:1]/5bh[4:1],{16},,,,3b,3,3,3,
3,3,{8}4bh[4:1]/2bh[4:1],{16},,,,7b,7,7,7,7,7,{8}8bh[4:1]/6bh[4:1],
{16},,,,2b,2,2,2,2,2,{8}3bh[4:1]/1bh[4:1],,,8/5,
8/5,7/4,7/4,6/3,6/3,5/2,5/2,
{16}2x,1x,4x,5x,8x,7x,3x,4x,{2}C,
{1}E1h[1:4],
B7h[1:3],
B3h[1:2],
E5h[1:1],
{32}A8,D8,,,,,,,,,,,{8}A3,,E4,E5,E6,
{32}A4,D4,,,,,,,,,,,{8}A7,,E8,E1,E2,
{32}A8,D8,,,,,,,{4}3,4,5,
{2}6h[4:1],{16}7h,2h,5h,4h,8h,1h,6h,3h,
{32}7b,B7,Ch[16:23],B3,{8}A3,,,,,,,,,,,,2,
8/1v4[8:1],7<4[8:1],
1,7,,3,{16}1
||这是一个标记~
,2,{8}8,1/7-3[8:1],6,
{4}7b/4b-8[8:1],4b/2b-6[8:1],2b/7b<4[8:1],7b/8b,
3V52[6:1],{8}3/6,7,,2,4/1q5[8:1],5,
{4}1/6<8[8:1],{8}6/3-8[8:1],2,3/7<4[8:1],6,7/1-3[8:1]*-4[8:1],8,
{4}1b-6[8:1]*-7[8:1],1b-4[8:1]*>4[8:1],1b-6[8:1]*<6[8:1],1bw5[8:1],
{2}1b,{8}4/5,3/6,2/7,1/8,
{2}Cf,{16}1,8,2,7,1,8,3,6,
1,8,4,5,2,7,4,5,3,6,4,5,{32}2b,B2,C,B6,,,,,{8}8/7,
3/4,{16},,3,4,1,8,5,6,2-5[8:1],7,4,5,
{4}2b/6b-1[8:1],6b/3b-8[8:1],3b/7b-4[8:1]*-3[8:1],7b,
2V83[6:1],{8}2/5,6,,7,5/8p4[8:1],4,
{4}8/3>1[8:1],{8}3/6<1[8:1],7,6/2>5[8:1],3,2/5,1,
{4}8<6[8:1],{8}A1/8-5[8:1],D2,8-4[8:1],B2,{4}8/E3,
2b-7[8:1]/1b-7[8:1],2b-4[8:1]/1b-4[8:1],2b-6[8:1]/1b-6[8:1],2b/1b,
{8}7b/E2/B1
||这是一个标记~
,7,7b/1v4>3-8b[4:1],7,7b,7,7b,7,
3b/E6/B5,3,3b/5v8<7-4b[4:1],3,3b,3,3b,3,
7b,{24}2,3,4,{8}6b,{24}1,2,3,{8}5b,{24}8,1,2,{8}4b,{24}7,8,1,
{1}3b/Ch[4:3],
{4}4/3h[1:1],5,6,7,
{16}5,4,5,4,5,4,5,4,5,4,5,4,5,4,5,4,
{8}6,3,7/4,8,7/E2,6,5/3,2,
1/7,2,3/E6,4,5/6,B7/B4,4/7,E1/E3,
2,7,3/8,4,3/E6,2,1/7,6,
5/3,6,7/E2,8,1/2,B3/B8,8/3,E5/E7,
7/5,6,5/4,3,2/4,1,2/5,6,
7/B3,6,3/B7,2,{16}8,1,8,1,{8}8,2/7,
5/B1
||这是一个标记~
,6/B5,4/B8,B2,4/B6,B3,5/B1,E7,
4/B8,6/B2,5/B4,B6,3/E8,B3,5/2,3/6,
4/B8,3/B4,5/B1,B7,5/B3,B6,4/B8,E3,
5/B1,3/B7,4/B5,B3,8/1,2/7,5/4,3/6,
{16}7b
||这是一个标记~
,5,7,5,{8}7,{16}3b,4,3,4,{8}3,{16}6b,8,6,8,
{8}6,{16}2b,1,2,1,{8}2,{16}7b,3,7,3,{8}7,{24}7,6,5,
{16}2b,1,8,7,3b,2,1,8,4b,3,2,1,5b,4,3,2,
{8}1,{24}7/1h[8:1],6,5,{8}4b,{24}2/8h[8:1],3,4,{8}5b,{32}5b/8b,7/4,6/3,5/2,{8}4b/1b,{32}4b/1b,2/5,3/6,4/7,
{1}5b/8b,
{8},,,,3h,4h,5h,6h,
E
