&title=HELL! or HELL?
&artist=RAISE A SUILEN
&first=0
&des=MC! or FRM?
&des_5=MC! or FRM?
&lv_5=14
&inote_5=(197){4},{8},,,,,,,,,,,,,,3h[8:1],
4h[8:1],{4}2h[4:1],{8}5,6,3,4h[4:1],
,6h[8:1],5h[8:1],7h[4:1],4,3,6,5h[8:3],
,3,2h[8:1],4h[8:1],3h[8:1],5h[4:1],,4,
,5h[16:1],5h[16:1],4h[16:1]/6h[16:1],6h[16:1]/4h[16:1],3h[16:1]/7h[16:1],2/8,1h[8:1],
2,1h[8:1],3,1h[8:1],4,4,5/3,5/3,
4h[8:1],5,4h[8:1],6,4h[8:1],7,8,8,
7/1,7/1,6,5,{24}2,3,4,5,6,7,8,1,2,3/4<7[8:1],,,,,,{8}3,
{4}2V41[4:1]*-6b[8:1],{8}2,,,8,
,2,{4}4/3<6[8:1],{8}7,7-4[8:1],,7/1,
,3,2/4,1/5,8,1/7-3[8:1],,7/1,
,2,3/8,4/7<4[8:1],,7>2[8:1],,7,
5,6,{16}4,5,{8}3,2/4,1-3[8:1]/5-7[8:1],,1/5,
,,{4}4/8h[4:1],{8}3h[16:1],7/2h[16:1],6/1h[16:1],5/8h[4:1],
,6,5/1,4,5h[16:1],6h[16:1],7h[16:1],8/4h[4:1],
,7,6/5,1,4/2,3>1b[8:1]/7<5b[8:1],,3/7,
,4/8,{4}1/5h[4:1],{16}1,6,2,7,{8}3,4/8V62b[4:1],
,,{4}4V28b[8:1],4/8,{8}7V51b[4:1],7,
,2,{4}2w6b[8:1],2b,{8}8,3h[8:5],
,6,{4}5V71b[8:1],5,{8}2V48b[4:1],2,
,7,{4}7w3b[8:1],{2}7b,
{4}8xh[8:7],{8}4,3,3,2,,1-4[8:1],
,7-3[8:1],7,2-5[8:1],2,6-3[8:1],{4}6,
1xh[8:7],{8}5,6,6,7,,8-5[8:1],
,2-6[8:1],2,7-4[8:1],7,3-6[8:1],{4}3,
{8}7,7,6/4,3,6/4,7,6/5,4,
6/5,7,4/6,3,6/4,7,6/3,2,
8,8,8,8,{16}2,5,3,4,1,6,3,4,
{4}2b-4[8:1],2/8-3b[8:1],{8}8,4-7[8:1]*-1[8:1],,4b,
,5x-2[8:1],1,5,3-8[8:1],8,3,6,
,5x/1-5[8:1],{4}1x/5<8[16:3]*>2[16:3],{8},,,,8,
8x-3[8:1],4,8,2-5[8:1],5,2,6,
1,1/5,2/6,3/7,{16}4b/A8f/D8/E8,,,2b/A5f/E6/D6,,,{8}7b/A3f/B3/E4,
,1-3[8:1],7-4[8:1],1,{4}7,{8}2-5[8:1],5-1b[8:1],
2,6,{4}6,{8}7,7,2,3-5s1[2:3],
,6b,,6b,{16},,,6b,,,,6b,
,,,5b-1b[8:1],,,{8}5,Cf,,,8b,
{16},,1,7,2,6,3,5,{32}4bx,D4f,{16}A3,{32},,7b,D7,A6,D6,,,2b,E3,{16}B3,
{32}8b,B8,C,B4,,,,,{16}3,7,2,8,{32}1bx,D2f,{16}A2,{32},,6b,D7,A7,D8,,,3b,E3,{16}B2,
{32}5b,B5,C,B1,,,,,{16}3,7,4,6,{32}5bx,D5f,{16}A4,{32},,7b,E7,B6,B5,,,3b,D3,{16}A2,
{32}8b,B8,C,B4,,,,,{8}2,5/3,6,1x-4b[8:1],,1b,
{16},,8,4,7,3,6,2,{32}5bx,D6f,{16}A6,{32},,2b,D3,A3,D4,,,7b,E7,{16}B6,
{32}1b,B1,C,B5,,,,,{16}6,3,7,4,{32}8bx,D8f,{16}A7,{32},,3b,D3,A2,D2,,,6b,E7,{16}B7,
{32}4b,B4,C,B8,,,,,{16}6,2,5,1,{32}4bx,D5f,{16}A5,{32},,2b,E3,B3,B4,,,6b,D7,{16}A7,
{32}1b,B1,C,B5,,,,,{8}7,4/6,3,8h[4:1],,,2q6[8:1],
2,8<5[8:1],8,3,1,,4/1>4[8:1],
,1/6,{4}6h[4:1],5x-2[8:1],{8}5,6-1[8:1],
,2,3,4,3/5,2qq3[2:1]/6qq7[2:1],,2/6,
,,,,,2xpp5b[1:1],2,2,
,6xpp1[2:1],6,6,,,,,,4,
7/3,7/3,6/2,6/2pp1[8:3],,8h[4:1],
,,6x-1[8:1],2x-5b[8:1],6,2,,8b,
,7b/1,{4}6b/2,5h[4:1],{32}1b,2b/6,3b/7,4b/8,,,,,,,,,{8}5b/7>1[8:1],
6,2,3b<5[8:1],7,3/6,7h[4:1],
8,1,2b/6h[8:1],3,5b/4h[8:1],6,7b,2/8,
{16}3b,4,{8}2,1,2/8,{16}6b,5,{8}7,8,1b-5[8:1]/7-5[8:1],
2,1b-3[8:1]/7b-3[8:1],A5f,7b/1b-5[8:1],A3f,1bw5[8:1],A5f,1b,
,,5/6h[8:1],4,7,6/8,1,2/4h[8:1],
3,4/6h[8:1],5,7,8/6,5/1-5[8:1],2/4,{48}5b/1b,Cf,,,,,,,,,,,{8}8/3-7[8:1],
3,{24}3/7b,Cf,,,,,{8}5<8[8:1],5,1s5[4:1],
,,,,6/4,6/4,3/7,8/2,
,2b,{16}3b,3,{32}A6f,D6,A5,D5,{16}3/A4,3,{32}A6f,D6,A5,D5,{16}3/A4,3,{32}A6f,D6,A5,D5,
{16}3/A4,3,{32}A6f,D6,A5,D5,{16}3/A4,3,{32}A6f,D6,A5,D5,{16}3/A4,3,4x,4x,2x,2x,{8}4q8[4:1],
,1,2,3,4,6-8[8:1]/4-8[8:1],{48},,,,,,6b-2[8:1]/4-2[8:1],Cf,,,,,,,,,,,6/4-8[8:1],
Cf,,,,,,,,,,,4b<7[8:1]*>1[8:1],Cf,,,,,,,,,,,{8}4bw8[8:1],,4b,
,2/6h[8:1],3,7/4h[8:1],8,8-5[8:1]*-3[8:1],,8,
,4h[8:1],3,5/2,6/1h[8:1],6h[4:1],{32},,,,8b,1x,2x,3x,
{8}4x,6b/5,{4}5/6b-1[8:1],4/6,{8}2,3,
{16}4,5,4,5,3,5,4,5,2,5,4,5,1,5,4,5,
{4}8,8-5[8:1]*z4[8:1],8,6V84[8:1],
6,5x>2[4:1],2-6<1[4:1],5,
{16},,4,5,{4}3<6[8:1],{8}7,7-4[8:1],,7/1,
{16},,3,4,{8}2,1/5,{16}2,3,4,5,{8}8,7/1,
,2,3/8,4/7<4[8:1],,7>2[8:1],,7,
5,6,{16}4,5,{8}3,2/4,1-3b[8:1]/5-7b[8:1],,1/5,
,4/8,{4}4/8h[4:1],{16}3,7,2,6,{8}1,8/2h[4:1],
,6,3/5,4,{16}5,4,6,5,{8}7,8/4h[4:1],
,7,6/5,1,4/2,3>1b[8:1]/7<5b[8:1],,3/7,
,4/8,{4}1/5h[4:1],{16}1,6,2,7,{8}3,4h[4:1],
,5,5,6,{16}6,4,{8}5,4,5h[8:3],
3,4,4,3,{16}3,5,{8}4,6,6h[4:1],
4,5,4,3,{16}4,5,{8}4h[4:1],5,6,
7,{16}6,6,5,5,4,4,3,3,6,6,5,5,4,4,
{8}3,4/6,7,5/3,1,4/6,8,5/2,
3,7/5,6,1/4,{16}2,5,{8}4,5,6/4,
{16}2,4,3,6,5,7,4,8,3,7,2,6,1,5,{8}8,
{4}8x-3[8:1]/4x-7[8:1],8/4V62[8:1],{2}2,
E
