&title=Transcend My Love
&artist=Sephid
&first=0
&des=Love From Alien
&lv_5=13
&inote_5=(155){1},
{4}3h[2:1],5h[8:3],,,
{8}3/5,3h[8:3]/5h[4:1],,,,,,,
{4}6h[2:1],4h[8:3],,Chf[1:1],
{8}1,1,1,1,1,1,1bw5[8:1],,
{4}1x>8[2:3],,6h[1:0],5h[1:0],
{4}4h[1:0],3h[1:0],2h[1:0],1h[1:0],
{4}8x<1[2:3],2h[1:0],3h[1:0],4h[1:0],
{4}5h[1:0],6h[1:0],7h[1:0],8h[1:0],
{16}1x,,,2,4xh[8:1],,3,,8x,,,7,5xh[8:1],,6,,
{16}1x,,,2,4xh[8:1],,3,,8x,,,7,5xh[8:1],,6,,
{8}1x,2,3xh[8:1],4,8x,7,6xh[8:1],5,
{16}1x,8,1,8,2x,7,2,7,3x,6,3,6,4xh[1:0],5,4,5h[1:0],
{4}Cf,8qq4[2:1],3,2,
{4}1V35[8:3],6,7,8z4[8:3],
{8}5,,3,,1,,7x/8x,7x-4[8:1]/8x-5[8:1],
{8},7xqq3[16:7]/8x,,Cf,,,1,,
{8}2bx/4bx,3,3,3,7bx/5bx,6,6,6,
{8}2bx/4bx,3,7bx/5bx,6,1bx/5bx,3,8bx/4bx,6,
{16}1x,5,1,5,2,6,2,6,3,7,3,7,4,8,4,8,
{2}5bqq8[8:3],8xw4b[8:1],
{4}2x^5[8:1],6,7^4[8:1],3,
{8}2x,,1x/8x,1x^3[8:1]/8xq4[8:1],,1xpp6[16:7]/8x,,Cf,
{8},,8,,8h[2:1],,4,4-8[8:1],
{8},4>5[8:3]*q5[8:3],,Cf,,,,,
{16}2bx^5[8:1],,,1,2,,8,,7b^4[8:1],,,8,7,,1,,
{8}2b-4[8:1],4x,2b-8[8:1],8x,2b-6[8:1],5x,2b,7x,
{16}8b,,8,,8,,8,,4b/8b,,3,4,2b,,1bpp5[2:1]/5b,,
{2},5xw1b[8:1],
{4},2h[2:1],4,4,
{4}7h[2:1],5V71-3[8:3],,,
{8}5,5,5h[4:3],,6,,2,3,
{8}4,4>5[2:1],,,,,,,
{4}8b,7V51[8:3],4h[4:1],,
{4}3,2V48[8:3],5h[4:1],,
{8}6,,7/3h[4:1],,8z4[8:3],,4,4V25-1[2:1],
{1},
{8}2b/7b,,8x-4[8:1]/1xv3[8:1],,,,5,6,
{16}7-4-8[4:1],,,4,7x,,1,,2-5-1[4:1],,,5,2x,,8,,
{8},,7x-5[8:1]/8xp4[8:1],,,,3,2,
{16}1-5-2[4:1],,,5,1x,,7,,8-4-7[4:1],,,4,8x,,2,,
{8},,8x/1xs5[16:3]*s5[16:3],,,,6,7,
{16}8-5-7[4:1],,,5,8x,,3,,2V48[4:1],,,4,2x,,6,,
{16}7v4-6[4:1],,,4,7x,,2,,1-5-3[4:1],,,5,1x,,6,,
{24}7h[1:0],,,2h[1:0],,,5h[1:0],,,4h[1:0],,,6h[1:0],,3xh[1:0],4xh[1:0],5xh[1:0],,6h[1:0],,,3h[1:0],,,
{8}2b/7b,,8x-4[8:1]/1xV38[4:1],,,,5,6,
{16}7V53[4:1],,,5,7x,,2,,1-5-1[4:1],,,3,1x,,7,,
{8},,1x-5[8:1]/6xV85[4:1],,,,4,3,
{16}2V46[4:1],,,4,2x,,7,,8-5-1[4:1],,,5,8x,,3,,
{8}2bx,2,2,2,8bx,8,8,8,
{8}6bx,6,4bx,4,2bx,2,8bx,8,
{16}1x,7,1,7,2,6,2,6,3,5,3,5,4,8,2,6,
{16}1b,,1,,1,,1,,8b/E5f,,,2b/B6f,,,7b/E3f,,
{4}1x>5[4:1],5<1[4:1],1>5[4:1],5,
{8}7x,,8x/1x,8xqq6[8:1]/1x-5[8:1],,8xpp3[16:7]/1x,,Cf,
{8},,5h[2:1],,1,1-5[8:1],,1p6[16:7]*pp5[16:7],
{8},Cf,,,,,C,,
{4}2x>6[4:1],6<2[4:1],2>6[4:1],6,
{8}8x,,1x/2x,1x-4[8:1]/2xv5[8:1],,1xqq6[16:7]/2x,,Cf,
{8},,4h[2:1],,8,8-4[8:1],,8,
{24}2h[1:0],,,5h[1:0],,,4h[1:0],,,7h[1:0],,,3h[1:0],,6xh[1:0],5xh[1:0],4xh[1:0],,3h[1:0],,,6h[1:0],,,
{16}1bxh[2:1]/8b,,,,,,,,3,2,5,4h[16:3],,,7h[16:3],,
{16},6h[16:3],,,5,,5V71[4:1],,,,1,,3,,5,,
{16}2x,,4,4h[16:3],,,5h[2:1],,,,6,,7,,8,,
{16}1h[8:1],,2,2,3,3,4,4,5h[8:1],,6h[8:1],,7h[8:1],,8bxh[4:1],,
{8}1bw5[8:1],,,,4x/6x,3/7,2/8,1bxh[8:1],
{16}8b,,1,8,2,7,3,6,4h[8:1],,2h[8:1],,8h[8:1],,6h[8:1],,
{16}1b,7,5,6,8,6,5,6,1b,5,4,5,2,4,3bxh[2:1],,
{16}1b,,1x,,1x,,1,,8bx,2,6x,4,7b,1,5x,3,
{1}8bV24V68>8>8[2:7],
{1},
{1},
{1},
{1}1x>8[2:3],
{1},
{1}1xV35-7[4:5],
{4},,,C,
{4}3h[4:3],5,5,5,
{4}6h[4:3],4,4,4,
{4}3h[4:1],4,6h[4:1],5,
{4}2h[4:1],4,7h[4:1],5,
{8}1bx,1,1,1,7bx,7,7,7,
{8}5bx,5,3bx,3,1bx,1,7bx,7,
{16}1x,5,3,7,4,8,2,6,1,7,3,5,2,8,4,6,
{16}1b,,1,,1,,,,8b/E5f,,,2b/B6f,,,7b/E3f,,
{32}1x-5[12:1]/8x-4[12:1],,,,,,,,1b/8b,Cf,,,,,,,2x^5-1b[4:1]/7x,,,,,,5,,2x,,,,8,,,,
{16}7<8[16:5],,,4,7x,,Cf,,,,,,1,,2,,
{16}3V15[4:1],,,1,3x,,8,,7-4-8b[4:1],,,4,7x,,2,,
{16}1<2[16:5],,,5,1x,,Cf,,,,,,8,,,,
{4}7b-4[8:1]/1b-6[8:1],1b/7b,2b-5[8:1]/8b-4[8:1],8b/2b,
{16}1-5b[8:1],,,5<4[16:5],1x,,E8f,,,,,,6,,7,,
{16}8-4-6[4:1],,,4,8x,,1,,2-6b[8:1],,,5<4[8:3],2x,,5b,,
{4},,Chf[2:1],,
{16}B7/B3,,,,1pp5[2:1],,,5,1x,,,6,,,7,,
{16}8,,,,8-4-7-5[2:1],,,4,8x,,,3,,,2,,
{16}1,,,,1s5[16:3],,,5,1x,,,6x,,,7x-5[8:1]/8x-4[8:1],,
{8},8xpp5[16:7]/7x,,Cf,,,7,,
{8}6bx/4bx,5,5,5,3bx/5bx,4,4,4,
{8}7bx/5bx,6,2bx/4bx,3,8bx/5bx,6,1bx/4bx,3,
{16}8x,4,7,3,6,2,5,1,4,8,4,8,4-8[8:1],8,4,8,
{16}4b,,1,,1,,1,,8b/E5f,,,2b/B6f,,,7b/E3f,,
{4}1xh[4:3],,,8x-4[16:1],
{16}8bx/2x-6[16:1],,,2bx/7x-3-7b[8:1],,,7bx/1x,,1xw5[8:1],,,,,,,,
{1},
E
