&title=The Other Side
&artist=AU5 × Chime
&first=0
&des_1=The_Procyon
&des_2=The_Procyon
&des_3=The_Procyon
&des_4=The_Procyon
&des_5=The_Procyon
&lv_5=13+
&des_6=The_Procyon
&des_7=The_Procyon
&des=The_Procyon
&inote_5=(150){4},{1},
{24}B6h[4:15],B5h[24:89],E5h[3:11],B4h[8:29],{12}B3h[12:43],{1},,,{4},,{16},,
{16}2,,,3,,,4,,,5,,,{8}6,,
7h[16:3],{16},6h[16:3],,,5h[16:3],,,4h[16:3],,,{8}3h[4:1],
,E2,{16},E3,,,E4,,,E5,,,{8}E6,
,E5h[16:3]/E7h[8:3]/B4h[16:9]/A7h[4:3]/B7h[8:7],,,,,,,,3h[8:1],
{16},3h[8:1]/4h[8:1],,,4h[8:1]/5h[8:1],,,5h[8:1]/6h[8:1],,,{8}7,
,2h[8:1],{16},2h[8:1]/1h[8:1],,,1h[8:1]/8h[8:1],,,8h[8:1]/7h[8:1],,,{8}6,
,5h[8:1]/1h[8:1],{16},2h[8:1]/6h[8:1],,,3h[8:1]/7h[8:1],,,4h[8:1]/8h[8:1],,,{8}5/1,
,4h[8:1]/8h[8:1],{16},7h[8:1]/3h[8:1],,,6h[8:1]/2h[8:1],,,5h[8:1]/1h[8:1],,,{8}4/8,
{4}1bqq2[4:3],5,5,5,
6qq7[4:3],2,2,2,
4b>5[4:3],D5,E6,B7,
8<1[4:3],D1,E2,B3,
{2}4bv1[8:1]*v7[8:1],8b-5[8:1]*-3[8:1],
2bq7[8:1]/6bqq4[8:1],5<8[8:1]/1>4[8:1],
{8}5h[8:1],{16}7,7,{8}4h[8:1],{16}6,6,{8}3h[8:1],{16}5,5,{8}2h[8:1],{16}4,4,
{8}1h[8:1],{16}8,2,{8}7h[8:1],{16}5,6,{2}4b-8[8:1]/3bp5[8:1],
{16}7x,,,7xh[16:37],{1},{4},,,{16},,,{32}A6,
E6,E5,E4,{16}A3h[16:27]/D3h[16:27]/E3h[16:27],{1},{4},,{8},{16}4x,
,,2xpp1[16:21]/5xpp8[16:21],{1},{4},,,{32}2x,
3x,{16}4x,{32},,2x,3x,{4}4xh[2:1],{32},,,,,,,,7x,6x,{16}5x,{32},,7x,6x,
{8}5xh[8:5],{16},,,,,,,,2,{32}2,4,{16}3>6<3[1:1],6,{8}5,
{2}7h[4:1],{4}5,4,
5qq1[4:3],7,6,5<3>5[1:1],
5,2h[4:1],,3,
4pp8[8:5],1,2,3,
{8}7-4[8:1],7,1-6[8:1],2,3-8[8:1],4,5,5,
6-4[8:1],1-5[8:1],6,1,{16}7,7,3,3,4,2,6,5,
7bxh[16:3],{64},,,,,,,,3/E8,B8,B1,E2,{4}A2fh[4:1],{16},,,,3bxh[16:3],{64},,,,,,,,E4,B4,B5,E6,
{4}7/A6h[4:3],{16},,,,,,,,7,7,{8}5,
{16}4-6-1[8:1]*<5v8[8:1],,,4,,,,,2>5[8:1],,,1,{8}2-8[8:1],6,
{16}7,7<4[8:1],,,3,7,,1,{4}1w5[8:1],1,
{16}2-6[16:1]/8-4[16:1],,,2/8,,,,,3-1[8:1],,,4,{8}3,6,
{16}7V51[4:1],8,,8,{8}7,2,4xh[8:1],{16}8,8,1,7,3,4,
1-7-4[8:1]*<8v5[8:1],,,1,,,,,3>8[8:1],,,4,{8}3-5[8:1],7,
{16}6,6<1[8:1],,,2,6,,4,{4}4w8[8:1],4,
{16}2-5[16:2]/6v3[16:2],,,6/2<4[4:1],,,,,{4}7b,{16}3-1[16:2]/8-4[16:2],,,8/3<1[4:1],
,,,,,,,,6b,6,2,2,7,4,6,3,
5-3-8[8:1]*>4v1[8:1],,,5,,,,,{4}7b/2b,{24}8x/3x-1[8:1],7x,6x,5x,,,{4}3/4h[4:1],
{24}2-7[12:1],5,3,6,{12}4h[12:1],{4}2bV48[4:1],{32}E7,A6,,,,,,,{16}5b-8[16:1]*-2[16:1],
,,5b,,,,,3xh[6:1]/7xh[24:7],{48},,,,,,E3,B2,B1,,,,E7,B6,B5,,,,,,,{16}6xh[6:1]/2xh[24:7],
{48},,,,,,E7,B7,B8,,,,E3,B3,B4,,,,,,,{2}6v8[8:1]/5xV73[8:1],
{16}4,7,5,6,5-3[8:1],,,6,{4}5b<8[8:1],{16}1,2,{8}3h[8:1],
{16}1h[8:1],,,8h[8:1]/4h[8:1],,,{8}6/5h[8:1],{4}7w3[8:1],B7/B6/B8/E6/E1,
{16}1bx>4[16:2]/5bx<8[16:2],,,1bx/5bxp8[8:1],,,,,{4}C,{16}1bx-5[16:2]/7bx-4[16:2],,,7bx/1bx>8[16:13],
,,,,,,,,,,,,,,,,{2}6h[2:1],
5h[2:1],
4h[2:1],3h[2:1],
6h[2:1],5h[2:1],
4h[2:1],3h[2:1],
{16}7,2,6,3,{4}5,5/4-2[8:1],5,
5/1-3[8:1],5,5/4>1[8:1],5,
{8}6-8[8:1],6,5-1[8:1],5,4-8[8:1],4,3,3,
{64}8x,7x,{192},,{48}6x,5x,{96},{32}4x,{24}3x,2x,1x,{16}8x,7x,{48},,{12}6x,{2}5xw1[8:1],
{4}2>5[8:1],6>3[8:1],2-5[8:1],6p2[8:1],
1q6[8:1],6p8[8:1],7-3[8:1],7,
2w6[8:1],2,8w4[8:1],8,
{1}E7h[4:3]/E6h[4:3]/B6h[16:13]/E3h[8:7]/E2h[8:7]/B2h[16:15],
{4}7<4[8:1],3<6[8:1],7-4[8:1],3q7[8:1],
8p3[8:1],3q1[8:1],8<5[8:1],8,
4w8[8:1],4,1w5[8:1],1,
3-1[8:1]/7-5[8:1],7-3[8:1],{2}3h[2:1],
{8}5>2[8:1],{16}1,8,5-7[8:1],6,,,{8}4,2-6[8:1],{16}1,1,{8}2-4[8:1],
8,2,{16}6-4[8:1],5,{8}7,6<1[8:1],3,{16}2,3,{8}4,
{16}3-5[8:1],2,{8}2,{4}3-7[8:1],6-4[8:1],{16}1,2,{8}3h[8:1],
{1}Ch[1:1],
{8}4<7[8:1],{16}8,1,4-2[8:1],3,,,{8}5,7-3[8:1],{16}8,8,{8}7-5[8:1],
1,7,{16}3-5[8:1],4,{8}2,3>8[8:1],6,{16}7,6,{8}5,
{16}7,7,{8}6,{16}5-1[8:1],4,{8}4,{4}3-5[8:1],{16}8,7,{8}6h[8:1],
{16}1>4[8:1],,,8,{8}1,5,{16}7<4[8:1],,,8,7,1,,,{2}2>5[8:1]/5<8[8:1],
{4}Ch[32:1]/7pp6[1:1],{32}E4,B4,{16}B5,{32},,,,E4,
B4,{16}B5,{32},,,,E4,B4,{16}B5,{32},,,,E4,B4,{16}B5,{32},,,,E4,B4,{16}B5,{32},,,,E4/6<1[8:3],
B4,{16}B5,{32},,,,E4,B4,{16}B5,{32},,,,E4,B4,{16}B5,{32},,,,E4/2<6[2:1],B4,{16}B5,{32},,,,E4,
B4,{16}B5,{32},,,,E4,B4,{16}B5,,,2,5,3,6,{8}4,7,
{2}7<4[8:1]/4>1[8:1],{4}Ch[32:1]/2qq3[1:1],{32}E6,B5,{16}B4,{32},,,,E6,
B5,{16}B4,{32},,,,E6,B5,{16}B4,{32},,,,E6,B5,{16}B4,{32},,,,E6,B5,{16}B4,{32},,,,E6/3>8[8:3],
B5,{16}B4,{32},,,,E6,B5,{16}B4,{32},,,,E6,B5,{16}B4,{32},,,,E6/7>3[2:1],B5,{16}B4,{32},,,,E6,
B5,{16}B4,{32},,,,E6,B5,{16}B4,,,{2}4x-8[8:1]*qq5[8:3],
{32},,,,,,,,E6,E7,{16}E8,,,{4}1,C/2pp1[4:3],
{32}E7h[32:1],B6h[32:1],{16}E6h[32:1],{32},,,,E7h[32:1],B6h[32:1],{16}E6h[32:1],{32},,,,E7h[32:1],B6h[32:1],{16}E6h[32:1],{32},,,,E7h[32:1],B6h[32:1],{16}E6h[32:1],{32},,,,E7h[32:1]/8>3[8:3],
B6h[32:1],{16}E6h[32:1],{32},,,,E7h[32:1],B6h[32:1],{16}E6h[32:1],{32},,,,E7h[32:1],B6h[32:1],{16}E6h[32:1],{32},,,,E7h[32:1]/4qq8[2:1],B6h[32:1],{16}E6h[32:1],{32},,,,E7h[32:1],
B6h[32:1],{16}E6h[32:1],{32},,,,E7h[32:1],B6h[32:1],{16}E6h[32:1],,,{2}5xw1[8:1],
{24}E6,E5,E4,E3,E2,E1,E8,E7,{6}E6,8,{12},{4}C/7qq8[4:3],
{32}E3h[32:1],B3h[32:1],{16}E4h[32:1],{32},,,,E3h[32:1],B3h[32:1],{16}E4h[32:1],{32},,,,E3h[32:1],B3h[32:1],{16}E4h[32:1],{32},,,,E3h[32:1],B3h[32:1],{16}E4h[32:1],{32},,,,E3h[32:1]/1<6[8:3],
B3h[32:1],{16}E4h[32:1],{32},,,,E3h[32:1],B3h[32:1],{16}E4h[32:1],{32},,,,E3h[32:1],B3h[32:1],{16}E4h[32:1],{32},,,,E3h[32:1]/5pp1[2:1],B3h[32:1],{16}E4h[32:1],{32},,,,E3h[32:1],
B3h[32:1],{16}E4h[32:1],{32},,,,E3h[32:1],B3h[32:1],{16}E4h[32:1],,,{2}5w1[8:1],
{16}3qq2-4-8[4:3]/7v6-4-8[4:3],,,3/7,
E
