&title=写儀の少女Lix
&artist=Se-U-Ra
&first=-0.74
&des=Maple.
&des_5=Maple.
&lv_5=14
&inote_5=(195){4},,,,5b/Cf,
4,3,2,
1-7-5-3-1[2:5],{8}B7,B8,,,B4,B3,
,,,,,B3,B7,B1,
{4}B5,Ch[2:1],{8},,,,7b/3b,
6,5,4,6,5,4,3,
2bh[8:1]/6bh[4:1],,,4b/8b-4[4:1],,8b/1bxh,1xh,1xh,
2b/6b,3,4,5,3,4,5<3[2:1],6,
,,,,{4}8h[8:1],7h[8:1],
3b/6b,2,1,8<2[2:1],
,,1-5b[8:1],{8}1,8,
7b<2[8:3],,,2<5[8:3],,,3,2,
{4}1>5[4:1],5<1[4:1],{2}7h[4:1],
{8}2>7[8:3],,,7>4[8:3],,,6,7,
{4}8V64[4:1],4V28[4:1],{2}2h[4:1],
{4}3b/7b-4[8:1],7/1-5[8:1],1/8-4[8:1],8/2-5[8:1],
2b/6b-1[8:1],6/8w4[8:1],8bx,2/6,
{16}3b,4,3,4,2b,5,1,6,8b,7,{32}1,2,3,4,8b,7,6,5,4,3,2,1,
{8}4bx/8bx,7b/3bx,{4}6b/2bx,{16}5b/1bx,,,3b/7bx,,,{8}8bx/4b,
{16}2bx/B6f,,,E4,,,{8}E8,B2,B6,C,{16}B5,E5,
{12}E2,E3,E4,E1,E8,E7,{16}E5,B4,B3,B2,{12}B1,B6,B4,
{1}8x-6>3-1b[2:3],
{8}8xh,8xh,8xh,8xh,,8xh,{4}8xh,
{8}3b/7b,6,2,1,{4}4/8h[8:1],{8}3,7,
6,5h[8:1],,2,6,7,{4}4h[8:1],
{8}3/5b,6,7,8,4,2h[8:1],,6,
{4}5/7h[8:1],{8}4,3,2,{16}4/1,5,6,7,{8}8,
{4}2b/1bx-5[8:1],1/8,7b/8bx-4[8:1],{8}8/1,2b,
{4}3b-8[8:1],{8}7,7b-4[8:1],,2bh,3h,3h,
{4}5b/4b-8[8:1],4/3,{8}1/7,6/8-6[8:1],1b,8b/2b-4[8:1],
,2b/1b-5[8:1],,1b/5b,,7bh[4:1]/3bh[8:1],,,5b/4b-2[8:1],
6,7,8-6[8:1],1,2,3-1[8:1],4,
3/5<7[8:1],4,5,{24}1,2,3,{8}4h[8:1],5h[8:1],{4}2h[4:5],
{8}E7,B7,B8,E1,,D5,B4,E3,
{4}E2,{8}7/3,B2,6/B1,6/B8,6/C,5,
{4}3b/7b<4[8:3],{8}4,4>1[8:3],,1,{4}1<6[8:3],
{8}6,6>1[2:1],,3,{2}3h[8:3],
{4}7/2>5[8:3],{8}5,5<8[8:3],,8,{4}8>3[8:3],
{8}3,3<8[2:1],,6,{2}6bh[8:3],
{8}1bx/5bx,B1,E7,B3,E6,B1,B7,B4,
C,A2,D7,{24}E3,B3,B4,{8}E5,D6,E1,C,
2b/7b,3,5,7/1,{24}7/1,6,5,4h[8:1],,,{8}1,6/2,
{16}3/7-4[8:1],,,8,{8}7,1,{24}2/8,3,4,5h[8:1],,,{8}6,7,
1b/8b<5[4:1],2,3,4,3>8[4:1],4,5,6,
7<4[4:1],3,2,1,2>5[4:1],5,6,7,
8-4[8:1],7,8/1-5[8:1],2,{4}1/7-3[8:1],{8}7/3,2,
{32}5b/1b,8,7,6,5,4,3,2,{8}1q5[8:1],{16}5,6,{4}1/7-3[8:1],7/2/Cf,
{8}1b>4[8:1],8,7,6b<1[8:1],5,4,3b<6[8:1],2,
1,8b>3[8:1],7,6,5b<8[8:1],4,3,2,
1b<6[8:1],2,3,4b>1[8:1],5,6,7b<4[8:1],8,
1,2b<7[8:1],3,4,5b>2[8:1],6,7h[16:1],8h[16:1],
1b-5[8:1],{16}2,8,{8}1,7b-4[8:1],{16}6,8,{8}7,2b-5[8:1],{16}3,1,
{8}2,8b-4[8:1],{16}7,1,{8}8,3b-8[8:1],{16}2,4,{8}3,5b-1[8:1],
{16}6,4,{8}5,4b-8[8:1],{16}3,5,{8}4,6b-1[8:1],{16}7,5,{8}6,
{4}2b<6[8:3],{8}5,6b>3[4:1],,,,,Cf,
,,,,E5,B6,E8,
,,,,,A4,B3,E2,
,E1,B7,E6,E2,E3,E5,E8/B8/B7,
{4}B3/E4/B4,B6/E6/B5,B2/E3/B3,E1/B8/B1,
{16}6b/1b-5[8:1],7/2,{8}8/3,1,2h[8:1],,4>8[2:1],5,4/6,
{4}7,6,{16}1-5[8:1],8,{8}2,{4}1,
6b/4bpp7[8:5],2,2,{8}2,1,
8b/4b,5/1,6/2,3/7,{32}4b/8b,7,6,5,4,3,2,1,8,7,6,5,4,3,2,1,
{4}8bxh[4:3]/E5f,E4,E3,E2,
{16}4,5,4,5,3,6,3,6,2,7,2,7,1,8,1,8,
{8}2b-5[8:1],2,1,8,7b-2[8:1],7,6,5,
4b-7[8:1],4,3,2,1bx-5[8:1],2-4[8:1],1bx,2,
7b<4[8:1],7,8,1,2b<7[8:1],2,3,4,
5b>2[8:1],5,6,7,{4}8bx-4[8:1]/1bx-5[8:1],8bx/1bx,
{8}8b>1-3[8:1],8,7,6,5b<6-8[8:1],5,4,3,
2b>3-5[8:1],2,1,8,7bx-4[8:1],6,7bx/8bx,{16}1,2,
{8}3x/5,3x/5,7x/1,7x/1,4x/6,4x/6,8x/2,8x/2,
{16}1,7,3,5,2,8,4,6,{8}1h[8:1],{32}7x,6,5,4,{8}2h[8:1],{32}8x,7,6,5,
{12}E1,E2,E3,E8,E7,E6,B2,C,B4,E8,B3,E6,
{16}5bxh[16:3],,,7bh[16:3],,,{8}1bh[4:1],,6,5,2,
7b-5[8:1],8-4[8:1],7,8,1-5[8:1],2-4[8:1],1,2,
{16}A6,E6,E5,A4,A8,E8,E7,A6,A2,E2,E1,A8,A4,E4,E3,A2,
7x,6,5,4,8x,7,6,2x,3,4,1x,2,3,4,{8}5x/1x,
7/3,6/1-5[8:1],{16}2,8,{8}1,6,2/7-3[8:1],{16}8-4[8:1],1,{8}7,
8,5,3/7<4[8:1],8,{16}7/1-5[8:1],2,{8}3,{16}1/6-2[8:1],7,{8}8-4[8:1],
6,8bx,{24}3x-7[8:1],2x,1x,8x,,,{4}3bx,{16}1-5[8:1],8,2,7,
1b>4[8:1],,,8,{8}1,7,6/8,5/1,3b/7b-3b[8:1],7b/3b-7b[8:1],
,2b-5b[8:1],,2b/8bh[8:1],{16},,1-5[8:1],2,{8}3h[8:1],1,
4b<7[8:1],3,2,1,8>3[8:1],7,6,5h[8:1],
{16},,D5,D4,D3,A8,A7,A6,1x,5x,1x,5x,1x,5x,1x,5x,
2x,3,4,5,1x,2,3,7x,6,5,8x,7,6,5,{8}4x/8x,
2/6,3/8-4[8:1],{16}7,1,{8}8,3,7/2-6[8:1],{16}1-5[8:1],8,{8}2,
1,3,4<7[8:1],3,4/2-6[8:1],1,2/8,7-4[8:1],
8,7b/3b-8[8:1],2,3b/5b,6,{16}4,5,3,6,2,7,
1bx,8,1,1,1bx,1,1,1,{8}1bx,2/8,{16}1bx-4b[8:1]*-3<4b[8:1],1,1,1,
{4}1bx-6b[8:1]*-7<6b[8:1],1bxw5b[8:1],1bx,{16}7,3,{8}7,
2bh[8:1]/A6,A7,2h[8:1]/A8,B8,{4}3h[8:1],{8}3h[8:1]/E6,E7,
E8,C,,1,6,2,7,3,
7bh[8:1]/A4,A3,7h[8:1]/A2,A1,6h[8:1],E2,6h[8:1]/E3,E4,
B2,C,,8,{16}A1,E2,E3,A3,A6,E6,E5,A4,
{8}3,2,6,5,7,8h[4:1],,7h[4:1],
,6h[4:1],,3h[8:1],2h[8:1],3h[8:1],{4}4h[8:1],
5bq7q1q5b[2:5],,,A4,
A3,A2,A1,E4,
E3,E2,{2}E1,
E
