&title=Empurple
&artist=はるまきごはん
&first=0.3
&des=Red and Blue
&lv_5=13+
&inote_5=(136)
{24},,,,,,,,,,,,1,8,1,8,1,8,1-5[8:1],8,1,8,1,8,
{16}7bx-3b[32:1]*-4b[32:1]/1bx,,,7bx<8[4:4],,,7/4hx[8:5],,,,,,,,,,,,,,,,,,Ch[16:16]/E7/E3/B6/B3,,,,,,,,,,,,,,,,
{16},,,,2,2,,4h[128:1],,3h[8:1]/5h[8:1],,,6,,6,,7/5,,7,5,6,4h[8:1],,5h[128:1],,6h[8:1]/4h[8:1],,,3,,3,,
{16}2/4,,2,4,3,5h[8:1],,4h[128:1],,3h[8:1]/5h[8:1],,,6,,6,,7/5,,7,5,6,4h[8:1],,5h[128:1],,6h[8:1]/4h[8:1],,,3,,3,,
{16}2/4-2[8:1],,5,,4/6,,7,,1,8,,8/2h[8:1],,5,3,4,2>5[8:1],,1,,6/2,,7,,1/8,,,E3/E5/B4/B3,,,7-4[8:1]/5,,,,
{16}7,,3,,2,,8,1,,7h[8:1]/1,,5,6,4,7h[8:1],,1,,3h[8:1],,4,,B8/B7/B6,,,B1/B2/B3,,,E5/B4/B5/Ch[4:1],,,,,,
{16}2/7,,8,1,7,7,,1/6,
{16}E8,E7,E6,E5/D5,E2/A2,,C,,E8/A7,,C,,E6,E5,E4,,C,,E1/B1/B2/E3/B8/B7/E7,,
{16},,4/5,,3/6,,7h[8:1],,5,6,,8/4,,2,2,,3,4,3,3,6,5,7,7,1b/2b,,,E4/B4/B5/E6,,,
{128}7bxz3[2:1],1bx-4-6[2:1],,,,,,,,,,,,,,,
{4},,,
{8}2h[8:1]/8h[8:1],
{16},,5h[16:2],,3,3,4,2,,2h[128:1],,2h[128:1],1,,2/8,,7/1,,
{16}4h[16:2],,6,6,5,7,,7h[128:1],,7h[128:1],8,,7/1,,2/8,,3,4b,,5,4b,,2,4b,,6,4bh[8:3],,,,,,
{32}A8,D8,A7,D7,A6,D6,A5,D5,
{16}1h[8:1],,,3/6,,,7,,8h[8:1]/5h[8:1],,,6/3,,,2,,1h[8:1]/4h[8:1],,,3/6,,4,,4,8-5[8:1],,4,,8/5,,4,,
{16}4h[8:1]/2h[8:1],,,1/8,,,6,,5h[8:1]/7h[8:1],,,1/8,,,3,,2/4,,3,5,4,6,3,,
{128}A8/E8/B7,A1,E2,B2,,,,,,,,,,,,,,,,,,,,,,,,,,,,,
{128}4b>3-1[8:1],5<6-8b[8:1],,,,,,,,,,,,,,,,,,,,,,,,,,,,,,,
{8}4/5,,
{16}7x/8x,,,2/4,,,5/6,,
{128}2bh[8:6],8qq1[32:7],,,,,,,,,,,,,,,,,,,,,,,,,,,,,,,
{32},,,,,,,,D3,A3,D4,A4,D5,A5,D6,A6,D7,A7,D8,A8,D1,,,,
{16}3,4,/5,6,3,4,5,6,2-5[12:1],4,5,7,2b,,,,
{16}5/6,,5/7,,3/4,,2/5,2h[8:1]/5h[8:1],,,1/7,,5h[8:1]/6h[8:1],,,,
{16}4/3,,4/2,,6/5,,7/4,7h[8:1]/4h[8:1],,,8/2,,3h[8:1]/5h[8:1],,,,
{16}7/5,,2/4,,1/8,,2/7,2/7,,5/6,,2/4,,2x/8x,2x/8x,2x/8x,1x/7x,,5/6,,2/8<5[8:1]*>3[8:1],,3/4,,,,,,E8/E1/E7/B8/B7/A8/A7,,,,
{16}5/6,,5/7,,3/4,,2-6[16:1]*-6[16:1]/5,2/5h[8:1],,,7/2,,8h[8:1]/7h[8:1],,,,
{16}4/3,,4/2,,6/5,,7-3[16:1]*-3[16:1]/4,7/4h[8:1],,,7/3,,1h[8:1]/2h[8:1],,,,
{16}2/6,,4/8,,3/7,,2/6,
{128}2q6b[8:1],6q2[8:1],,,,,,,
{16},8/4,,2b/6b,,,,,1,,3,3,6,5,7,,4bh[8:1]/8bh[8:1],,,2bh[8:1]/6bh[8:1],,,
{128}3p4[4:6],7p8b[4:6],,,,,,,,,,,,,,,
{2},,,
{8},,,2-7[8:1]/6-3[8:1],1,2b/6b,
{16},,1x,1x,8-4[8:1],,2/7,,8,,1,,7,,1,1,8,2,,7,7-2[8:1],,2-5[8:1]/8,,7,,,,,,
{16}7/5,,4/6,,3,3,4,2,,2h[16:2],,
{16}A8,A7,A6,A5/E1,E2,E3,E4,A7,B6,B3,A2,E1/A1/A8,,E6,E5,E4,,A2/E3/A7/E7,,,,
{16}2/4,,5/3,,6,5,7,7,,2/8,,E3,C,E7,A3,A4,A5,A6,A2,E4,E6,A7,
{16}1x,1x,8x,8xq4[8:1]*p4[8:1],1/7,1/7,,,,,2b/7b,,
{16}3,3,5,5>2[8:1],4/6,6/4,,,,7,1,8,2,4,3,5,4,7,5,6,4,,2/6,2/6,,3/5,3>2-8[8:1]/5<6-8[8:1],,4h[128:1],,3b/5b,,,,
{16},1/2,,3/5,,7/8,,6,6,5,7,7/8,,2,2/1,,6,6x/8x,,3,3hx[8:3]/1x,,,,,,
{32}A8,D8,A7,D7,A6,D6,A5,D5,
{16}1h[8:1],,,3/6,,,7,,8h[8:1]/5h[8:1],,,6/3,,,2,,1h[8:1]/4h[8:1],,,3/6,,4/7,,4,8-5[8:1],,4,,8/5,,4,,
{16}4h[8:1]/3h[8:1],,,1/8,,,6,,
{128}5hx[128:1],6hx[128:1],,,,,,,,,,,,,,,
{16}1b/8b,,,,,,,,,,,,,,A1f/E2/A2/D2,,,,7bx,,5bx/6bx,,3bx,4bx,,2bx,2bx/8bx,,4bx/6bx,,1bx/7bx,,
{2}3bxqq2>6b[32:11]/5bxh[8:5],
{8},
{48}A7,D8,A8,D1,A1,D2,A2,D3,A3,D4,A4,D5,A5,D6,A6,D7,A7,D8,A8,D1,A1,D2,A2,D3,
{16}A3/6,5,4,3,7,5,4,2,
{32}8,7,6,5,4,3,2,1,8b,,
{16}7,,5,
{16}5x/6x,,5/7,,3/4,,2/5,2/5,,6,1/7,,2/8,,3,4,
{16}5x/2x,,5/6,,7/4,,6/1,6/1,,8,1/7,,3/5,,4,6,
{16}7x/5x,,2/4,,1/8,,2/7,2/7,,5/6,,2/4,,2x/8x,2x/8x,2x/8x,1x/7x,,5/6,,2/8<5[8:1]*>3[8:1],,3/4,,,,,,E8/E1/E7/B8f/B7/A8/A7,,,,
{16}5/6,,5/7,,3/4,,2-6[16:1]/5,2/5h[8:1],,,7/2,,8h[8:1]/7h[8:1],,,,
{16}4/3,,4/2,,6/5,,7-3b[16:1]/4,7/4h[8:1],,,7/3,,1h[8:1]/2h[8:1],,,,
{16}2/6,,
{128}4,8,,,,,,,
{16},3/7,,
{128}2,6,,,,,,,
{128}2q6b[8:1],6q2[8:1],,,,,,,
{16},8/4,,2b/6b,,,,,1,,3,3,6,5,7,,4bh[8:1]/8bh[8:1],,,2bh[8:1]/6bh[8:1],,,
{128}3p4[4:6],7p8b[4:6],,,,,,,,,,,,,,,
{4},,,,,,,
{32},,,,,,E2,B2,B3,,,,
{16}4x/7x,,2x,
{32},5x,,4x,,,6hx[4:1],,,,,,,,,,,4x,,,5x,,3x,,,,,2hx[32:7],,,,,,,8x,,,,
{64}7x-1[8:1],3x-1[8:1],6hx[32:6]/4hx[32:6],,,,,,,,,,,,,,
{4},
{16}3x,,4x,,5x,,6x,,
{256}7h[4:1],5p8[4:1],,,,,,,,,,,,,,,,,,,,,,,,,,,,,,,,,,,,,,,,,,,,,,,,,,,,,,,,,,,,,,,
{16},,,,5<8[4:1],,,,8v5[4:1],,,,5-7-1[4:1],,,,1,,,,
{16}4,,3,,2,,1,,
{256}8,7-4[4:1],,,,,,,,,,,,,,,,,,,,,,,,,,,,,,,,,,,,,,,,,,,,,,,,,,,,,,,,,,,,,,,
{16}4>1[4:1],,,,1v4[4:1],,,,4>8[4:1],,,,8p4[4:1],,,,4,,,,2,,1,,8,,7,,
{256}6,5p1[4:1],,,,,,,,,,,,,,,,,,,,,,,,,,,,,,,,,,,,,,,,,,,,,,,,,,,,,,,,,,,,,,,
{16}1p4[4:1],,,,4>8[4:1],,,,8<4[4:1],,,,4,,,,7,,,,7,,6,,5,,4,,
{256}3,2,,,,,,,,,,,,,,,
{16},,,1-5[8:1],,,,
{256}1,7,,,,,,,,,,,,,,,
{16},,,8-4[8:1],,,,
{256}8,2-8[8:1],,,,,,,,,,,,,,,
{16},,,
{256}2>4[8:1],4h[8:1],,,,,,,,,,,,,,,
{16},,,
{32}4x-1-4b[4:14]/2b,5x,6x,,,,,,,,,,,,,,
{2},,,,,,,
{16}3/5,,3,4,2,,1/8,,6,5,7,7,3,4,2,2,1b/7b,,3,2b/4b,,6,5bh[8:1]/7b,,
{32}8,1,2,3,4,5,6,7,8bx/2bx-5[8:1],3,4bx,5,6bx,7,8bx,1,2bx/5bx,,,,
{16}7,,5/6,,3,2/4,,8,7/1,,6,4,5,3,2x/4x,,1/8,,5/7,,4,3/5,,6,7/5,,8,8,1,1,7x/2x,,3/4,,5/6,,7/8,7/8,,8/2,,6/4,,
{16}7x/3x,7x/3x,7x/3x,2>5[8:1]/6,,1,,2/6>7b[108:36],,7,,6/2-6[12:1],,,,A8/B8/Cf/B4/A4,,,,
{16}5x/6x,,5/7,,3/4,,2-6[16:1]/5,2/5h[8:1],,,7/2,,8/7,,6,,
{16}4/3,,4/2,,6/5,,7-3b[16:1]/4,7/4h[8:1],,,7/3,,2b/1b,,,,
{128}7,3bx,,,,,,,,,,,,,,
{128}4,8bx,,,,,,,,,,,,,,
{128}7,3bx,,,,,,,,,,,,,,
{128}2bx,6,,,,,,,
{128}2q6[8:1],6q2bxb[8:1],,,,,,,,,,,,,,,,,,
{128}8bx,4,,,,,,,
{16},2bx/6bx,,,,,1,,3,3,6,5,7,,4bh[8:1]/8bh[8:1],,,2bh[8:1]/6bh[8:1],,,
{128}3p1[8:5],7p5b[8:5],,,,,,,,,,,,,,,
{16},,,,,,,,,,,,,,,,
{16}2/6,,3,3,5,5,,3,5-8[8:1]*-8b[8:1],,4/6,,,,,,7/3,,6,6,5,5,,6,4-1[8:1]*-1b[8:1],,5/3,,,,,,
{16}2/5,,3,3,4,4,,5/3,,4/6,,5/7,,6,5,,6/4,,7,7,1,1,,8,2/8,,3/7,,
{256}2v5[8:1],8v5b[8:1],,,,,,,,,,,,,,,
{16},,,
{16},,,,3,3,,4h[128:1],,3h[8:1]/5h[8:1],,,6,,6,,7/5,,7,5,6,4h[8:1],,5h[128:1],,6h[8:1]/4h[8:1],,,3,,3,,
{16}2/4,,2,4,3,5h[8:1],,4h[128:1],,3h[8:1]/5h[8:1],,,6,,6,,7/5,,7,5,6,4h[8:1],,5h[128:1],,6h[8:1]/4h[8:1],,,3,,3,,
{16}6,,5,,4h[4:1],,,,,3h[8:1]/5h[8:1],,,6,,6,,3,,4,,5h[4:1],,,,,6h[8:1]/4h[8:1],,,3,,3,,
{16}E3,,E4,,E5,,,,,,,,,,,,E7,,E6,,E5,
