&title=ニュース39
&artist=Mitchie M
&first=1.51
&des_1=Ragna
&des_2=Ragna
&des_3=Ragna
&des_4=Ragna
&des_5=Ragna
&lv_5=13
&des_6=Ragna
&des_7=Ragna
&des=Ragna
&wholebpm=132
&demo_seek=40.6
&demo_len=13.9
&inote_5=(132){8}2h[8:3]/8h[8:3],,,,34,{16},6<3[4:1]/5,{8},6/8h[2:1],
,,,{16}4,8,{8}4-1[32:3]*-7[32:3],,4,,
,2h[8:3]/8,3,4,5h[16:3],{16},4,{8},3^1[32:3]/6^8[32:3],
,3b/6b,,,,,,,
{16}3,4,2,,6,5,7,,3,4,2,,6,5h[16:3],,,
7,8,6,,2,1,3,,7,8,{8}6,2h[4:1],1,
8h[16:7],6,5,{16}4^1[32:3],4,{8},,7h[4:1],8,
1h[16:7],3,4,{16}5^8[32:3],5,{8},,2h[4:1],1,
8h[16:7],6,5,{16}4^1[32:3],4,{8},8,7,6,
1v4[32:3]/5v8[32:3],,15,,7h[16:1]/3h[16:1],,6h[4:1],5,
4h[16:7],2,1,{16}8^5[32:3],8,{8},,3h[4:1],4,
5h[16:7],7,8,{16}1^4[32:3],1,{8},,6h[4:1],5,
4h[16:7],2,1,{16}8^5[32:3],8,{8},4,3,2,
{16}6,1,8,4,6,2,5,3qq5[4:1],{8},,,,
6h[2:1],5,4,3,2h[2:1],1,8,7,
6pp5[4:1],6,3qq4[4:1],3,,6,,5,
6,7,8qq8[32:7],8,,,,1,
2,3,46,4v1[32:3]/6v1[32:3],,,,,
2h[2:1],1,8,7,6h[2:1],5,4,3,
2pp1[4:1],2,7qq8[4:1],7,,2,,{16}3^6[32:3],1,
{8}3,,,7,81,{16},24,,,75,,
1,8,1,8,2,7,2,7,3,6,3,6,4,5,4,5,
3V51[16:3],,,,5,,,,6V85[16:3],,,5-1[32:3],{8},1,
,3bqq5[4:1],,8b,,8,7,6,
4/5q8[4:1],,2,2,1h[16:3],{16},8,{8},2bq5[32:9]/7bp4[32:9],
,,,,,36,27,18,
2-5[32:3]/7-4[32:3],,27,,6V85[16:3],{16},5-1[32:3],{8},1,
,3bqq5[4:1],,8b,,,8,7,
46,{16}2,4,3,,7,5,6,,1,4,3,,8,,
4,5,4,5,3,6,3,6,2,7,2,7,1,8,1,8,
2h,1h,8h,7h,,,2h,1h,8h,7h,,,6V48[16:3],,,,
4,,3bqq5[4:1],,,,8b,,,,8,7,6,,5h[8:3],,
4p1[4:1],,,,4,,7,,8h[16:3],,,1,{8},2bq4[32:9]/7bp5[32:9],
,,,,,36,27,18,
2-5[32:3]/7-4[32:3],,27,,6h[16:3],{16},7h[16:3],{8},8b>8[8:3],
,,,,,{128},{8}1,2,3,
4-8[32:3],,5-1[32:3],,4^1[32:3],,5^8[32:3],,
1b,{16},3-8[176#8:1],,,7-3[176#8:1],,,1-5[176#8:1],,,6-1[176#8:1],,,4b>5[16:7],
{1},
{16}2h[8:1]/4h[8:1],,,1h[8:1]/2h[8:1],,,1h[8:1]/7h[8:1],,,8h[8:1]/5h[8:1],,,6h[8:1]/2h[8:1],,,4h[8:1]/1h[8:1],
,,8h[8:1]/7h[8:1],,,3h[8:1]/5h[8:1],,,{4}1^4[32:3]/8^5[32:3],18,
3b/6bpp3[8:11],,,,
1h[8:1],1h[8:1],1h[8:1],1h[8:1],
5/4-7[32:3],3/4-2[32:3],5/4-6[32:3],3/4-8[32:3],
4/5-2[32:3],6/5-7[32:3],4/5-3[32:3],6/5-1[32:3],
5/4^7[32:3],3/4-8[32:3],4/5^2[32:3],6/5-1[32:3],
45,8-6[32:3]/2-4[32:3],8v5[32:3]/2v5[32:3],82,
{8}8qq8[32:7],,1pp1[32:7],,,,8,,
2qq4[4:1]/7pp5[4:1],,27,,,,36,,
3v5[32:3]/7v5[32:3],,3^1[32:3]/7^1[32:3],,,,37,,
3>6[4:1]/6<3[4:1],,3qq5[32:9]/6pp4[32:9],,,,,,
1<4[8:1]*p4[8:1],,1,,8-5[32:3],,1-4[32:3],,
6-1[32:3],,2-5[32:3],,6pp6[32:7],,3,,
4-1[32:3],,4qq4[32:7],,8-5[32:3],,8,,
7p2[8:1]/2q7[8:1],,27,,18,{16}27,2h[16:3]/7h[16:3],,,,,
1h[8:1]/5h[8:1],,,4h[8:1]/6h[8:1],,,8h[8:1]/5h[8:1],,,7h[8:1]/1h[8:1],,,2h[8:1]/3h[8:1],,,5bpp8[8:5]/4bqq1[8:5],
{1},
1bpp4[16:7]/8bqq5[16:7],
{4}4^1[32:3]/5^8[32:3],45,27,,
1-5[32:3]/8-4[32:3],1b/8b,{16}6V85[16:3],,,6/5-1[32:3],{8},1,
,3bqq5[4:1],,8b/3b,,8,7,6,
4/5pp8[4:1],,2,2,1h[16:3],{16},8,{8},2bqq5[16:5]/7bpp4[16:5],
,,,,,36,27,18,
2-5[32:3]/7-4[32:3],,27,,6V85[16:3],{16},6/5-1[32:3],{8},1,
,3bqq5[4:1],,8b/3b,,,8,7,
46,{16}2,4,3,,7,5,6,,1h[8:3],,,,,,
5,4,5,4,6,3,6,3,7,2,7,2,1^6[32:3]/8^3[32:3],,,,
1-5[32:3]/8-4[32:3],,,,18,,,,6V85[16:3],,,6/5-1[32:3],,,1,,
,,3bqq5[4:1],,,,8b/3b,,,,8,7,6,,5,,
4qq1[4:1],,,,7,,,,8h[16:3],,,1,{8},2bpp5[16:5]/7bqq4[16:5],
,,,,,36,27,18,
2-5[32:3]/7-4[32:3],,27,,3h[16:3],{16},2h[16:3],{8},1b<1[16:7],
,,,,,8,7,6,
5-1[32:3],,4-8[32:3],,5^8[32:3],,4^1[32:3],,
8b,{16},7-3[176#8:1],,,2-7[176#8:1],,,6-3[176#8:1],,,1-5[176#8:1],,,6-1[176#8:1],
,,2-5[176#8:1],,,8-4[176#8:1],,,3-8[176#8:1],,,6-3[176#8:1],,,1b>8[2:3],,
{1},,
E
