&title=帰り道
&artist=八九寺真宵 (CV.加藤英美里)
&first=0
&des=Sakurago
&lv_5=12+
&inote_5=(175.00)
{8},,,,,,,,
{8},2,5,4,6,3h[8:12],,E7,
{8},E6,,C,,E4,,E3,
{8},7,4,5,3,6h[8:2],,1bs5[8:4]*>5[8:4],
{8},,,,,,Cf,,
{8}2x>5[8:1],,7<4[8:1],,2>5[8:1],,7<4[8:1],,
{8}2>5[8:1],,7<4[8:1],,2>5[8:1],,7,,
{8}6-1[8:1],5xh[128:1],3xh[128:1],,6<1[8:1],5xh[128:1],3xh[128:1],,
{8}2,3/8,4/7,5h[8:3]/6,,8,8,,
{8}4-2[8:1]/5-7[8:1],,4/5,,4-8[8:1]/5-1[8:1],,4/5,,
{8}4qq1[8:3]/5pp8[8:3],,,,,,2/7,3,
{8}1/2,3/8,4/7,7/8,1/6,2/5,1/8,2-5[8:1]/7,
{8},6b-1[8:1]/2b,,3b/6b,,2b/7b,,6,
{8}3/5,4,5-3[8:1]/6-2[8:1],,,,,4,
{8}6/4,5,4-6[8:1]/3-7[8:1],,,,,5,
{16}2/5,,3,4,3,,6,5,6h[8:1],,4h[8:1],,5h[8:1],,3-6[8:1],,
{16},,3x/7hx[16:4],,,,,,E2/E8/Cf,,,,,,3,,
{8}2v4[8:1],,5p7[8:2],,,,,5,
{8}6v8[8:1],,1p3[8:2],,,,,7,
{16}7/4,,6,5,6,,3,4,3h[8:1],,5h[8:1],,4h[8:1],,6-3[8:1],,
{8},2x/6x,,1/8,1-5[8:1]/8-4[8:1],,{64}1b/8b,Cf,,,{16},,,
{8}3hx[8:1],4,3h[8:1],2,3h[8:1],4,3h[8:1],2,
{8}4h[8:1],B5/B6,4h[8:1],B1/B8,4h[8:1],B5/B6,4h[8:1],B1/B8,
{8}3hx[8:1],4,3h[8:1],2,3h[8:1],4-1[8:1],,4/6V83[8:4],
{8},,,,,,,2,
{8}3/4,5,3-8[8:1]/4-7[8:1],,3/4,,,7,
{8}6/5,4,6-1[8:1]/5-2[8:1],,6/5,,,3/7,
{8}2/8<4[8:2],,4>8[8:2],,8<4[8:2],,4>8[8:2],,
{8}8b<4[8:2],,4b,,Cf,,,2,
{8}8-4[8:1]/1,8,3-1[8:1],3,5,5,,7,
{8}8,8v2[8:1]*v6[8:1],2>4[8:1]/6>4[8:1],,,,,1,
{16}2/7,,6,5,7,,3,4,2h[8:1],,5h[8:1],,4,,3bqq7[8:3]*qq8[8:3]/6b,,
{8},,,,,,4/5,3,
{8}2hx[8:2],3,5h[8:2],4,2h[8:2],3,5h[8:2],4,
{8}3h[8:2],1,4h[8:2],1,3h[8:2],1,4h[8:2],1,
{8}3h[8:2],4,6h[8:2],5,2h[8:2],4,7h[8:2],5,
{8}1h[8:2],4,8h[8:2],5,1-3
[8:1]*-5[8:1],,1b,,
{8}7x<3[8:2],3,2,1-5[8:1],,B6,B7,,
{8}2xV46[8:2],6,7,8-4[8:1],,E4,E3,E2,
{8}1x/6x,B2/B5/Cf,,8x/3x,B7/B4/Cf,,3x/6x,B3/B6/Cf,,2xh[8:1]/7xh[8:1],
{8},4x/5x,4x/5x,,B1/B8/B4/B5/Cf,,
{8}2x-6[8:1],2,8-4[8:1],8,1-5[8:1],1,7-3[8:1],7,
{8}4p8[8:2],4>1[8:1],,,,,2/7,3,
{8}8x-4[8:1],8,2-6[8:1],2,5-1[8:1],5,3-7[8:1],3,
{8}6p2[8:2],6>3[8:1],,,,,1/6,7,
{8}2>5[8:1],1,8,7,6h[8:2],5,3h[8:2],4,
{8}5-1[8:1],1-5[8:1],,,,,7/3,2,
{8}1v4[8:1],8,7,6,5v8[8:1],4,3,2,
{8}1-4[8:1],1-6[8:1],1-5[8:1],,,,B3/B4/B5/B6/Cf,,
{8}7x-3[8:1],7,1-5[8:1],1,8-4[8:1],8,2-6[8:1],2,
{8}5q1[8:2],5<8[8:1],,,,,7/2,6,
{8}1x-5[8:1],1,7-3[8:1],7,4-8[8:1],4,6-2[8:1],6,
{8}3q7[8:2],3<6[8:1],,,,,8/3,2,
{8}7<4[8:1],8,1,2,3h[8:2],4,6h[8:1],5qq2[8:3],
{8},6,7,8,1w5[8:1],,1x,,
{8}2xpp8[8:3]/7xqq1[8:3],,,,,,4,{16}3h[8:1]/5h[8:1],,
{8},2/6,3/7,4/8,E8/E7/E6,,E2/E3/E4,,
{8}E1/E5/Ch[8:21],,,7x-5[8:1],,,,5x-7[8:1],
{8},,,,8b,,8b,,
{8},7x,,5x,,6xp5[8:3],,,
{8},,,,B2/B8/B4/B6/Cf,,
{8}3x>8[8:1],,6<1[8:1],,4p7[8:1],,5q2[8:1],,
{8}3>8[8:1],,6<1[8:1],,4p7[8:1],,6,,
{8}1/2,3/8,4/7,7/8,1/6,2/5,1/8,2-5[8:1]/7,
{8},6b-1[8:1]/2b,,3b-8[8:1]/6b,,3b/7b-4[8:1],,7b/1bs5[8:6],
{8},
,,,,,,,
E
