&title=larva
&artist=ガリガリさむし
&first=0
&lv_5=14.9
&des_5=RoboCraft6254
&inote_5=
(202){4},{8},,,,,,3h[8:3],
,,4h[8:3],,,{4}5h[8:3],
{8},6h[8:5],,,{4}5,5,
{8}7h[8:3],,,8h[8:3],,,{4}1h[8:3],
{8},2h[8:3],,,{2}7b,
{8}8-5>4-1[2:5],,,E1,,,{4}C,
{8},E5,,,{4}E6,C,
{8}E8,,,C,,,{4}E1,
{8},2/7,{16},,,,4,5,3,6,2,7,1,8,
{1}2h[4:3]/7bp4[2:1],
{8}4x/5x,,,6x/7x,,,{4}8x/1x,
{1}7h[4:3]/2bq5[2:1],
{8}4x/5x,,,3x/2x,,,{4}1x/8x,
2x-8[16:1],2/7x-3[16:1],7/4x-6[16:1],4/7x-1[16:1],
7/2x-6[16:1],2/5x-3[16:1],5/2x-8[16:1],2/6x,
{12}6,5,6,3,4,3,6,5,7,3,4,2,
{8}3/4,6/5,1pp4[8:3]/8qq5[8:3],2/7,1/8,E6/E4,E2/E8,A5/A4,
3b/6b,{16}5,4,{8}5,6/3,{16}4,5,3,6,2,7,1,8,
{8}2/7,{16}8,1,{8}8,2/7,{16}1,8,2,7,3,6,4,5,
{8}6/3,{16}3,4,{8}3,5/2,{16}3,4,2,5,1,6,8,7,
{8}6/1,7/8,8/1,1/2,{16}2,1,3,8,4,7,5,6,
{8}4b/7b,{16}6,5,{8}6,7/4,{16}5,6,4,7,3,8,2,1,
{8}3/8,{16}2,1,{8}2,3/7,{16}4,8,4,8,3,7,3,7,
{12}2b-6[16:1],2,2,7b-3[16:1],7,7,1b-5[16:1],1,1,8b-4[16:1],8,8,
{8}4,3,2>2[4:1],1,{32}2b<2[4:13]*w6b[16:1],,,,,,,,,Cf,{1},,,{4},,{16},,,{4}3/6,
{8}2,3,
4,5,3,4,7,6,5,4h[4:1],
,3,4,5,{4}3h[4:1],5h[4:1],
{8}4h[4:3],,,8h[8:3],{16},,,,,,,,8x,
7x,{8}6xh[8:1],{16}1x,2x,{8}3xh[8:1],{16}7x,6x,{8}5xh[8:1],{16}2,3,4,5,
{8}6xh[2:1],7,8,1,2xh[2:1],3,4,5,
6xh[4:1],5,3xh[4:1],4,{16}6bx,5,4,3,2,1,8,7,
3bx,4,5,6,7,8,1,2,6bx,5,4,3,2,1,8,7,
3bx,4,5,6,7,8,1,2,8,1,8,1,{8}8,2xh[8:1]/7xh[8:1],
,2/8,1/7,8/6,{16}7,7,7,7,{8}7,1xh[8:1]/6xh[8:1],
,7/1,8/2,1/3,{16}2,2,2,2,{8}2,3bh[8:1]/8bh[8:1],
{16},,2,1,2,1,{8}2,1/4,3/8,7/2,1bh[8:1]/6bh[8:1],
{16},,7,8,7,8,{8}7,8/5,6/1,2/7,3bh[8:1]/8bh[8:1],
{16},,2,1,2,1,{8}2,1/4,3/8,7/2,{32}1x/6x,2x/7x,{16}3xh[16:1]/8xh[16:1],
,,{8}7/2,6/3,5/4,{16}4,5,4,6,{8}4,3bh[8:1]/7bh[8:1],
{16},,8,4,8,4,8,4,{8}4/8,3/7,2/6,1bh[8:1]/5bh[8:1],
{16},,1,5,1,5,1,5,{8}5/1,6/2,7/3,4bh[8:1]/8bh[8:1],
{16},,8,3,7,2,6,1,{8}5,4/8,1/5,6/2b-6b[16:15],
,3/1,{16},4/8,,,7/5,,,8/4,,,{8}3/1,
{1}2b,
{32}2h[32:1],7,{4},,,{16},,,{32}6h[32:1],
3,{4},,,{16},,,{32}3h[32:1],
4,{4},,,{16},,,{32}6bh[32:1],
5,{4},,,{16},,,{32}2h[32:1],
4,{4},,,{16},,,{32}5h[32:1],
4,{4},,,{16},,,{4}2h[8:1]/7h[8:1],
{16}1,8,1,8,1,8,2,7,3,6,4,5,
{4}3b/6bh[4:3],4,4,{8}4x,{16}1,2,
{4}3h[4:3],5,5,{8}5x,{16}8,7,
{4}6h[4:1],{8}4x,{16}1,2,{4}3h[4:1],{8}5x,{16}8,7,
{8}6h[2:1],2,3,4,5,{32}3,4,3,4,{16}3,5,2,6,
{8}1bh[8:7],8x,7,7,6,6,5,5,
8bh[8:7],1x,2,2,3,3,4,4,
{16}4,8,4,8,3,7,3,7,2,6,2,6,1,5,1,5,
{8}8/4h[8:3],1,2,3,4/3h[8:3],5,6,7,
{32}1b/8b,2/7,3/6,4h[32:5]/5h[32:5],,,,,,,,,8b/1b,2/7,3/6,4h[32:5]/5h[32:5],,,,,,,,,8b/7b,6/1,5/2,3h[32:5]/4h[32:5],,,,,,,,,1b/2b,
3/8,4/7,6h[32:9]/5h[32:9],,,,,,,,,,7,8,1h[32:9],,,,,4,3,{16}2h[16:1],{32},,,,1b/2b,
3/8,4/7,5h[32:5]/6h[32:5],,,,,,,,,8b/7b,6/1,5/2,4h[32:5]/3h[32:5],,,,,,,,,8b/1b,2/7,3/6,4h[32:5]/5h[32:5],,,,,,,,,5b/4b,
3/6,2/7,8h[32:17]/1h[32:9],,,,,,,,,,2,3,4h[32:9],,,,,,7,6,5h[32:1],,,,,{8}5b/4xh[4:1],
6,7,4b/8xh[4:1],3,2,8b/1xh[4:1],7,
6,2b/5xh[8:5],3,4h[8:1],{32},3,2,1h[32:9],,,,,,6,7,8h[32:1],,,,,{8}1b/8xh[4:1],
2,3,8b/4xh[4:1],7,6,4b/5xh[4:1],3,
2,6b/1xh[2:1],7,{32}8b,7,6,5,,,,,7b,6,5,4,{8}1,1,
1x-5[0.4455##0.0743],,,1/7x-3[0.4455##0.0743],,,1/7,1,
8x-4[0.4455##0.0743],,,8/2x-6[0.4455##0.0743],,,8/2,8,
7x-3[0.4455##0.0743],,,7/1x-5[0.4455##0.0743],,,8/1,8,
7x-3[0.4455##0.0743],,,1x,{16}1/8,1/8,{8}2b/7b,{24},,,,,,{6}1x/C,
2,3,4x/C,5,6,
7x/C,8,1,2x/C,3,{12}4,5,
{8}4x/5x,3,5x/4x,6,4x/5x,2,5x/4x,7,
4x/5x,3,5x/4x,6,{16}4,5,4,5,3,6,3,6,
{1}2bx/7bx,
{8}B5/B4,B6/B3,B7/B2,B8/B1,{16}1,8,1,8,{32}1,2,3,4,5,6,7,8,
{8}1b/6b,{16}8,7,{8}8,6/1,{16}8,7,1,6,2,5,3,4,
{8}2/5,{16}3,4,{8}3,2/5,{16}4,3,5,2,6,1,7,8,
{8}6/1,7/8,8/1,1/2,4b/5b,{16}3,2b/4b,,6,{8}5b/7b,
{16}5/6,,,3/4,,,{8}1/8,{32}1b,2,3,4,5,6,7,8,1b,2,3,4,5,6,7,8,
{8}1,7/8,1/8,2/1,5b/4b,{16}6,5b/7b,,3,{8}4b/2b,
{16}3,3,4,4,5,5,6,6,3,3,4,4,5,5,6,6,
4,5,3,6,2,7,1,8,{8}7xh[8:1],{48}1b,2,3,4,,,{8}7xh[8:1],{48}1b,2,3,4,,,{8}4x/5x,
3x/6x,2x/7x,1x/8x,2x/7x,1/8-6-4-2-8<7-5-3-1<8-5[0.4426##0.8911],,,{1}1h[4:3],
{16}5,6,4,5,3,4,2,3,2,4,3,5,4,6,5,7b,
6,5,4,3,2,1,8,7,2b,3,4,5,6,7,8,1,
2/8b,7,6,5,1b,2,3,4,5/6,,,6/7,,,{8}7/8,
{16},8/1,,,5/1x,4,3,2,1/5x,8,7,6,5/1x,4,3,2,
1x/8x,7,6,5,{24}3x/4x,2,1,8x/7x,6,5,4x/3x,2,1,7x/8x,6,5,{8}3x/4x,3/2,
2/1,1/8,{16}7,8,7,8,6,1,6,1,5,2,5,2,
{8}3-8>3[0.5941##0.2941]/4-7<4[0.5941##0.2941],6/5,7/8,2/1,{4}3b-8b[8:1]/4b-7b[8:1],{24}A4/A3,B5/B2,B6/B1,A7/A8,,,{8}2x>5[8:1],
1,2,7x<4[8:1],8,7,3x>8[8:1],4,
3,6x<1[8:1],5,6,3b,6b/5b,8b/7b,1b/2b,
3/4,3/2,{16}2/1x,8x,{8}7x/6x,6/5,5/4,4/3,3/2,
1x-5[16:1],1,1/7x-3[16:1],7,7,{24}4b/8b,1/5,2/6,3/7,4/8,5/1,2/6,,,{8}2h[8:3],
6,5,4h[8:3],2,1,8h[8:3],4,
3,2h[8:3],8,7,6h[4:1],5,2h[4:1],3,
{2}6h[32:1],5h[32:1]/4h[32:1],
{8}4/5,3/6,2/7,1/8,2/7,{16}3,6,4,7,3,8,
2b,8,2,8,1,7,1,7,2b,3,4,5,6,7,8,1,
2b,8,2,8,1,7,1,7,2b,3,4/7b,6,5/2b,3,4/7b,6,
5h[8:3]/1h[8:1],,,2h[8:1],,,{8}3h,4/5,5/6,6/7,7/8,
{16}1x/8x,,,6x/3x,,,{8}1x-5[16:1]/8x-4[16:1],1x/8x,1/8,{16}3,6,3,6,
{12}5/4b-1[12:1],4,4,5b-8[12:1],5,5,6b-3[12:1],6,6,7b-2[12:1],7,7,
8b-5[12:1],8,8,1b-4[12:1],1,1,{16}8,7,6,5,4,3,2,1,
{8}8,8,{16}1b/8b,7/2,{8}3/6,4/5,5/4,3/6,6/3,
2/7,2/7,1/8,1/8,3/6,{24}3,4,3,{16}4,3,5,3,
{8}6,6/3,{16}4,5,{8}4,5/6,5/6,6/7,7/8,
8/1,1/8,2/7,8/1,{32}1b,2,3,4,8b,7,6,5,1b,2,3,4,8b,7,6,5xh[32:13],
{2}1xh[8:3],{16}2,6,2,6,{8}3/7,3/7,
8x/4x,8x/4x,3x/7x,3x/7x,{32}3,4,8,7,3,4,8,7,2,3,6,7,2,3,6,7,
{2}5b/1bh[2:7],E8,
E7,E6,
E5,E4,
E3,{4}E2,8w4b[16:1],
{32}8b,Cf,
E
