&title=平成快晴どってんしゃん
&artist=豚乙女
&first=0.36
&des=平成快晴
&lv_5=13+
&inote_5=(184)
{4}2q5[2:1]/5,,,,
{4}7p4[2:1]/4,,{8},,,3,
{4}2pp5[2:1]/6pp1[2:1],,,,
{16},,8,4,8-4[8:1],4,8,4,8^5[8:1]*^3[8:1],,,,,,,,
{16}7-3[8:1],,,7,,,2,,1-5[8:1],,,1,,,6,,
{16}8p4[8:1],,,8,,,3,,2,4,3,5,4,,6,,
{16}2q6[8:1],,,2,,,7,,8-4[8:1],,,8,,,3,,
{16}2-6[8:1],,,2,,,7,,7,5,6,4,5,,3,,
{16}5q1[8:1],,,5,,,2,,3p7[8:1],,,3,,,6,,
{16}5-1[8:1],,,5,,,2,,3,1,2,8,1,,7,,
{16}8-4[8:1],,,8,,,5,,6-2[8:1],,,6,,,3,,
{8}3^8[8:1],,34,,25,3,4,5,
{8}2-8[8:1]/6,,2-4[8:1]/6,,5,5h[4:1],,
{8}2qq4[8:3],,4,4,5,6-8[8:1]*-4[8:1],,,,
{8}7-1[8:1]/3,,7-5[8:1]/3,,2,2h[4:1],,
{8}6qq8[8:3],,1,1,2,{16}1-5[8:1],2,3,4,5,,,,
{8}3-5[8:1]/7,,3-1[8:1]/7,,6,6h[4:1],,
{8}3pp1[8:3],,7,7,6,5w1[8:1],,,,
{16}7-3[8:1],,,3,7,,2,,2-6[8:1]/4-8[8:1],,,,24,,,,
{8}7-4[8:1],3-5[8:1],7,3,8,6b/2b,,,
{8}2^5[16:3],,5qq1[8:3],,8,8,,7h[4:1],,8,1,2,3v5[8:1]*v1[8:1],,,,
{8}6^1[16:3],,1qq5[8:3],,4,4,,3h[4:1],,4,3,2,1v4[8:1]*v6[8:1],,,,
{8}7^4[16:3],,4pp8[8:3],,1,1,,2h[4:1],,1,2,3,4v7[8:1]*v1[8:1],,,,
{16}26,,,4,6,,5,,5-1[8:1]/6-2[8:1],,,,56,,,,
{16}8,7,6h[8:1],,5h[8:1],,4h[8:1],,3h[8:1],,2h[8:1],,1h[8:1],,8h[8:1],,
{16}2,1,,3,4,,8,7,{8}5h[8:1],6,1q2[4:1]/2,3,1/2>1[2:1],,,,,,,,
{16}7,8,,6,5,,1,2,{8}4h[8:1],3,8p7[4:1]/7,1,8/7<8[2:1],,,,,,6^3[4:1],,
{8}3^8[4:1],,8^5[4:1],,5,,2-4[8:1],,8-3[8:1],8,1-5[8:1],1,7w3[8:1],,,,
{16}6,,,5,6,,5,,5-2[8:1]/7-4[8:1],,,,57,,,,
{8}8-5[8:1],,8,1^4[16:3],,1,{16}8,7,6,5,
{8}8-3[8:1],,8,7^4[16:3],,7,{16}8,1,2,3,
{8}8-4[8:1],,8,1^4[16:3],,1,{16}8,7,6,5,
{16}48,,,36,,,18,,2b/7b,,,,,,,,
{16}37,,,6,2-6[8:1],,1,,2/8-3[8:1]*-5[8:1],,,,8b,,,,
{8}61,7,38,12,3-1[8:1]/8-4[8:1],,3b/8b,,
{16}62,,,3,8^5[8:1],,5,,4/8b^3[8:1],,,,4/8b,,,,
{8}5-7[8:1]*-8[8:1],1,5b-3[8:1]*-2[8:1],,5b-1[8:1],,,,
{16}37,,,6,2,,1,,2/8,,4,,17,,5,,
{8}7-5[8:1],8-4[8:1],7>5[8:3],8,7,,1q6[4:1],1,
{8}6,,8p3[4:1],8,3,,1-5[8:1],,1b>1[2:1],,,,,,,,
{8}37,3h[4:1]/7,4,5,73,7h[4:1]/3,8,1,
{8}3v8[8:1]/7v4[8:1],,37,,2b/6b,,,,
{16}4h[1:0],,,7h[1:0],,,1h[1:0],,,6h[1:0],,,3,4,3,,
{16}5h[1:0],,,1h[1:0],,,7h[1:0],,,,57,,46,,35,,
{16}4h[1:0],,,2h[1:0],,,8h[1:0],,,3h[1:0],,,6,5,6,,
{16}4h[1:0],,,8h[1:0],,,2h[1:0],,,,42,,53,,64,,
{16}5h[8:1],,6,5,6,5,7,,3,4,2,4,3h[8:1],,5,,
{16}4h[8:1],,6,5,7,4,6,,3,4,2,5,3h[8:1],,6,,
{16}4h[8:1],,8,3h[8:1],,7,2h[8:1],,6,1h[8:1],,5,8h[8:1],,6,,
{16}68,,,13,,,36,,,,4,5,4w8[8:1],,35,,
{4}4>5[2:7],,,,,,,,,,,,,,,,
{4}7qq5[4:3],,3,2,1pp3[4:3],,4,5,
{4}6pp8[2:1],,5,4pp5[2:1]*qq3[2:1],4,,
{8},7,7,7,
{16}62,,,3,7-3[8:1],,8,,7/1-6[8:1]*-4[8:1],,,,1b,,,,
{8}38,2,61,87,6-8[8:1]/1-5[8:1],,6b/1b,,
{16}37,,,6,1-3[8:1],,5,,4/1b-6[8:1],,,,4/1b,,,,
{8}4-2[8:1]*v1[8:1],8,4b-6[8:1]*v7[8:1],,4bw8[8:1],,,,
{16}62,,,3,7,,8,,7/1,,5,,82,,4,,
{8}2-4[8:1],1-5[8:1],2<4[8:3],1,2,,1p3[4:1],1,
{8}3,,8q6[4:1],8,6,,1-5[8:1],,1bq4[2:1]*p6[2:1],,,,,,,,
{8}37,3h[4:1]/7,4,5,73,7h[4:1]/3,8,1,
{8}3-8[8:1]/7-4[8:1],,37,,2b/6b,,
{16}5,6,7,8,
{16}2-6[8:1],,,6,2,,7,,8-4[8:1],,,4,8,,3,,
{16}1q5[8:1],,,5,1,,6,,7,5,6,4,5,,3,,
{16}7p3[8:1],,,3,7,,2,,1-5[8:1],,,5,1,,6,,
{16}7-3[8:1],,,3,7,,2,,2,4,3,5,4,,6,,
{16}4p8[8:1],,,8,4,,7,,6q2[8:1],,,2,6,,3,,
{16}4-8[8:1],,,8,4,,7,,6,8,7,1,8,,2,,
{16}1-5[8:1],,,5,1,,4,,3-7[8:1],,,7,3,,6,,
{8}6^1[8:1],,65,,74,6,5,4,
{8}4-8[8:1]/5-7[8:1],,5-1[8:1]/4-2[8:1],,
{4}4/5<4[1:4]*p4[1:1],,,,,,,,,,,,,,,,,
{1}1s5[4:1],
