&title=XL TECHNO -More Dance Remix
&artist=from PACA PACA PASSION Special
&first=-0.05
&lv_7=【定】14?
&des_7=-NICOLABULA-
&inote_7=
(150){4},{1},,,,{16}5,
4,{8}5,5/3,{16}5,4,{8}5,5/3,
{16}5,4,{8}5,{16}3,4,{8}3,3/5,{16}3,4,{8}3,3/5,
{16}3,4,{8}3,{16}6,5,{8}6,6/4,{16}6,5,{8}6,6/4,
{16}6,5,{8}6,{16}3,5,{8}3,3/6,{16}3,5,{8}3,3/6,
{16}3,4,{8}3,{16}6,4,{8}6,2/6,{16}6,4,{8}6,6/2,
{16}6,4,{8}6,{16}3,5,{8}3,7/3,{16}3,5,{8}3,3/7,
{16}3,5,{8}3,{16}6,4,{8}6,2/6,{16}6,4,{8}6,6/2,
{16}6,4,{8}6,{16}3,4,{8}3,7/3,{16}3,5,{8}3,{16}3,7,
{8}3,8/3,6/5b,{16}6,4,{8}6,6/4,{16}6,5,{8}6,
6/4,6/3,3/4b,{16}3,5,{8}3,3/5,{16}3,4,{8}3,
3/5,3/6,6/5b,{16}6,4,{8}6,6/4,{16}6,5,{8}6,
6/4,6/3,3/4b,{16}3,5,{8}3,3/5,{16}3,4,{8}3,
3/5,3/6,7/8b,{16}7,1,{8}7,7/1,{16}7,8,{8}7,
7/1,7/2,1b/2,{16}2,8,{8}2,2/8,{16}2,1,{8}2,
2/8,2/7,6/3b,{16}6,4,{8}6,6/3,{16}6,4,{8}6,
6/3,6/2,1/7b,{16}1,8,{8}1,1/7,{16}1,6,{8}1,
1/5,1/4,2/3b,{16}2,4,{8}2,2/5,{16}2,6,{8}2,
2/7,2/8,8/1b,{16}8,2,{8}8,8/3,{16}8,4,{8}8,
5/8,6/8,7/5b,{16}7,5,{8}7,7/4,{16}7,3,{8}7,
7/2,7/1,1/8b,{16}1,7,{8}1,1/6,{16}1,5,{8}1,
1/4,3/1,2/4b,{16}2,4,{8}2,2/6,{16}2,4,{8}2,
2/6,2/8,3b/8,{16}8,5,{8}8,8/3,{16}8,5,{8}8,
8/3,8/1,7b/2,{16}2,5,{8}2,2/7,{16}2,5,{8}2,
2/7,2/1,3b/8,{16}8,5,{8}8,3/8,{16}8,5,{8}8,
3/8,7/2,6/1b-7[8:1],6,1/6,6,6/1-3[8:1],6,
1/6,6,1b/6-3[8:1],1,1/6,1,1/6-8[8:1],1,
6/1,1,6/1b-3[8:1],6,6/1,6,6/1-7[8:1],6,
6/1,6,{4}1/6bw2[2:1],,,,{16}6,
4,{8}6,6/5,{16}6,4,6,3h[16:3],{8}6,
6,{16}6,1,6,2,6,3,6,4,6,5,{8}6,6/8,
6/1,{16}6,3,{8}6,{16}3,5,{8}3,3/6,{16}3,4,{8}3,
3/5,3/6,{16}3,4,3,6,3,4,3,6,3,5,3,7,
3,6,3,8,{8}3,3/7,{16}6,4,{8}6,{16}5,4,{8}5,
{16}6,4,{8}6,{16}5,4,{8}5,{16}6,3,6,2,{8}6,6,
6/1,1/7,{16}1,8,1,7,1,6,{8}1,{16}1,5,1,6,
{8}1,1/8,{4}2/7,{8}7/2,{16}2,6,{8}2,{16}2,5,
{8}2,2/4,{16}3,5,{8}3,3/5,{16}3,5,3,6h[16:3],{8}3,
3,{16}3,8,3,7,3,6,3,5,3,4,{8}3,3/1,
3/8,{16}3,6,3,5,{8}3,6/3,{16}6,5,6,4,{8}6,
6/3,{16}6,5,6,3,6,5,6,3,6,4,6,2,{8}6,
6/8,6/2,6/4,6/2,{16}2,4,{8}2,{16}3,4,{8}3,
{16}4,5,{8}4,{16}3,5,{8}3,{16}3,6,3,7,{8}3,3,
3/8,8/2,{16}8,1,8,2,8,3,{8}8,{16}8,4,8,3,
{8}8,8/1,{4}2/7-4[8:1],,2-5[8:1],
2,{8}5x/4-2[8:1],5,4/5,5,5/1,{16}5,2,
{8}5,5/4,4x/5x-7[8:1],4,4/5,4,4/8,{16}4,7,
{8}4,4/5,6x/3x-8[8:1],6,6/3,6,6/1,{16}5,2,
{8}5,3/6,3x/6x-1[8:1],3,3/6,3,3/8,{16}4,7,
{8}4,6/3,8x/1x-4[8:1],8,8/1,8,8/3,{16}8,2,
{8}8,8/1,1x/8x-5[8:1],1,1/8,1,1/6,{16}1,7,
{8}1,1/8,7x/2x-5[8:1],7,7/2,7,7/4,{16}8,3,
{8}8,2/7,2x/7x-4[8:1],2,2/7,2,2/7,{16}1,8,
{8}1,7/2,4x/3x-1[8:1],4,5/3-5[8:1],5,3/6,{16}6,7,
{8}8,8/5,5x/6x-8[8:1],5,4/6-4[8:1],4,6/3,{16}3,2,
{8}1,1/4,5/2-4[8:1],5,6/2-8[8:1],6,2/5,{16}5,6,
{8}7,7/1,2x/6x-4[8:1],2,3/6-8[8:1],3,6/2,{16}2,3,
{8}4,8/4,6/3x-1[8:1],6,5/3-5[8:1],5,3/6,{16}6,7,
{8}8,8/5,5x/6x-8[8:1],5,4/6-4[8:1],4,6/3,{16}3,2,
{8}1,1/4,5/2-4[8:1],5,6/2-6[8:1],6,2/7,{16}7,8,
{8}1,4/8,{16}3x,6,3,5,3,4,3,2,3,4,3,2,
3,4,3,4,{8}5bx/2bx,{16}5,3,{8}5/3,5/1,{16}5,3,{8}5/3,
5/1,5/4,4b/6b,{16}4,5,{8}4/5,4/8,{16}4,5,{8}4/5,
4/8,4/5,5b/3b,{16}5,3,{8}5/3,5/1,{16}5,3,{8}5/3,
5/1,5/4,4b/6b,{16}4,6,{8}4/6,4/8,{16}4,6,{8}4/6,
4/8,4/6,8b/3b,{16}8,2,{8}8/2,8/4,{16}8,2,{8}8/2,
8/4,8/2,1b/7b,{16}1,7,{8}1/7,1/5,{16}1,7,{8}1/7,
1/4,1/6,8b/2b,{16}8,2,{8}8/2,8/4,{16}8,2,{8}8/2,
8/5,8/3,1b/6b,{16}1,5,{8}1/5,1/8,{16}1,5,{8}1/5,
1/8,1/6,{4}3b/8h[16:15],,,{16},,,{32}1b,
2/7,3/6,4/5,
