&title=Full Moon Full Life
&artist=高橋あず美 & Lotus Juice
&first=0
&des=Tail_R
&lv_5=13
&inote_5=(193)
{1},,
{8}3h[4:1]/4,,5,5,5/E4,,3,4,
{8}2h[4:1],,6,5,4,3,6h[4:1],,
{8}3h[4:1],,8,8,8/E6,,2,1,
{8}3-5[8:1],,5,,6,5,7,1h[8:3],
{8},4,4-8[8:1],,3-1[8:1],,7,7h[8:3],
{8},4,4-8[8:1],,5-7[8:1],,2,2h[4:1],
{8},8,8-4[8:1],,1-3[8:1],,5<4qq5[4:3],5,
{1},
{8}2hb[4:1],,4,4^6[8:1],,3,3q7[8:1],,
{8}8xh[4:1],,5,6xh[4:1],,4,7hx[4:1],,
{8}3h[4:1],,4,4^7[8:1],,3,3q8[32:5],,
{8}7hx[4:1],,1,5hx[4:1],,2,6xh[4:1],,
{8}3h[4:1],,4,4<8[4:1],,2x,1x,3x,
{8}4xq2[4:1],,5x,5xh[4:1],,3,4,2,
{8}3h[4:1],,4,4<1[4:1],,3x,2x,4x,
{8}3xbp4[2:1]*>5[2:1],,,,,,,,
{8}2/5,3,4,2h[8:3]/5,,,B2,,
{8}4/7,6,5,6,4-8[8:1]/7,,3x,,
{8}2/5,3,4,2h[8:3]/5,,,A1,,
{8}4/7,6,5,6,4-1[8:1]/7,,2x,,
{8}8h[4:1],,E6,,3,3,3/E5,,
{8}6h[4:1],,E8,,4,4,4/E2,,
{8}8h[4:1],,E5,,2,2,2/E4,,
{8}1/3,4,3/8,4,7-3[8:1]/3,,1,,
{8}2/5,1,8,2/5h[8:3],,,B6,,
{8}7/4,8,1,8,7-4[8:1]/4-7[8:1],,,,
{8}2/5,1,8,2/5h[8:3],,,A6,,
{8}7/4,8,1,7/4V68[4:1],,3,3,2,
{8}1h[4:1],,E4,,6,6,6/E5,,
{8}3h[4:1],,E2,,5,5,5/E8,,
{8}1h[4:1],,E5,,6,6,{32}7b/E3,B3,B4,,,,,,
{32}2b/E7,B6,B5,,,,,,{8}1b/8b,,4b/5,4b/5,4b/5,4b/5,
{8}3bx-6[8:1]/6x,,8-5[8:1],,4-1[8:1],,7,7h[4:1],
{8},5,4x-2[8:1]/5x,,6-8[8:1],,5-1[8:1],,
{8}8,7,6,5,4-8[8:1],,2,2-6[8:1],
{8},7-4[8:1],,3,3-8[8:1],,8,,
{8}2-7[8:1]/7,,5-8[8:1],,1-4[8:1],,6,6h[4:1],
{8},8,8-4[8:1],,6-1[8:1]*-2[8:1],,6,,
{4}3^6[4:1],6^1[4:1],1^4[4:1],4V61[16:5],
{16}1,,,,7,,,,2/5,,3,4,2-5[8:1],,3,,
{4}6b-1[8:1],2-5[8:1]/6,6-1[8:1]/2,2-5[8:1]/6,
{8}2V48[4:1]/8,,7,7-4[8:1],,1-5[8:1]/7,,1b/8b,
{8},6,6/E5,,3,3,3/E2,,
{16}8-3[8:1]*-5[8:1]/4,,,,8,,,,2,3,4,5,8,7,6,5,
{4}4-8[8:1]/3b,2-5[8:1]/4,7-3[8:1]/2,2-5[8:1]/7,
{8}2xV84[4:1]/5,,6,6-1[8:1],,4-8[8:1],,4b/5,
{8},7,7/E5,,3/6,3/6,4-1b[8:1]/5-8b[8:1],,
{8}4b/5b,,2/7,,6,6,6/E1,,
{8}2-6[8:1]/8,,2/E5,,5-8[8:1],5,E2,,
{8}2-6[8:1]/8,,2/E5,,5-1[8:1],5,E4,,
{8}2-6[8:1]/8,,2/E5,,5^8[8:1],5,E1,,
{8}2-6[8:1]/8,,2/E5,,4-8[8:1],4,E3,,
{24}1bx,2x,3x,4x^1[8:1],,,,,,8bx,7x,6x,5x^8[8:1],,,,,,1bxpp8[2:1],2x,3x,4xpp8[8:3],,,
{8},,,,,,2,3b/1b-4[8:1],
{8},5,5-8[8:1],,4-1[8:1],,6,6b^3[8:1],
{16},,1,,1h[4:1],,,,6,5,6,5,7-4[8:1],,8,,
{4}3b-8[8:1],7-4[8:1]/3,3-8[8:1]/7,7-4[8:1]/3,
{8}7V51[4:1]/1,,2,2-5[8:1],,8-4[8:1]/2,,8b/1b,
{8},3,3/E5,,6,6,6/E8,,
{16}1w5[8:1]/5,,,,1,,,,7,6,5,4,1,2,3,4,
{4}5-1[8:1]/6b,7-4[8:1]/5,2-6[8:1]/7,7-4[8:1]/2,
{8}7xV15[4:1]/4,,3,3-8[8:1],,5-1[8:1],,5b/4,
{8},2,2/E1,,8,8,8/E6,,
{8}5h[4:1]/4,,E8,,2,2,2/E5,,
{8}7-3[8:1]/4x,,7/E1,,2^5[8:1],2,E1,,
{8}7-3[8:1]/1x,,7/E5,,4p8[8:1],4,E7,,
{8}7-3[8:1]/4x,,7/E1,,1-4[8:1],1,E6,,
{8}7-3[8:1]/1x,,7/E5,,5v2[8:1],5,E8,,
{24}7bx,6x,5x,4x-1[8:1],,,,,,8bx,7x,6x,5x^2[8:1],,,,,,1bxpp8[2:1],8x,7x,6xV48[8:3],,,
{8},,,,,,C,,
{8}3/4,2,5/6,7,3/4,1,5/6,8,
{16}3,4,3,4,2,6,2,6,8,7,8,7,{32}1x,2x,3x,4x,5x,6x,7x,8x,
{1}1bx>1[4:14]/Cf,
{1},
{1},
{1},
{8}3h[1:1],,,4h[8:9],,,,,
{8},,3h[2:1],,,5h[8:5],,,
{8}3h[2:1],,,4h[8:3],,,3h[8:3],,
