&title=Nigga Santa Ho Ho Ho
&artist=Havexy
&first=-0.182
&des=Sa1T
&lv_5=14
&des_5=Sa1T
&inote_5=
(151){4},{16},,1/5xh[8:1],2,{8}3,6xh[8:1],{16},,2/7xh[8:1],3,
{8}4,{16}1/6xh[8:1],2,{8}3,{16}2/5xh[8:1],3,{8}4,6xh[8:1],{16},,1/7xh[8:1],2,
{8}3,{16}2/6xh[8:1],3,{8}4,{16}1/5xh[8:1],2,{8}3,6xh[8:1],,7xh[8:1],
{16},,5,6,7,8,1,2,3/4,5,6,7,8,1,4,3,
2,1,{8}8/7,{16}6/1,5,4,3,2,1,8,7,6,5,{8}3/4,
5/2,{16}6/1,2,3,4,{8}5/6,7/4,{16}3/8,2,1,2,{8}1h[8:1],
{16},,8,7,8,7,{8}8h[8:1],{16},5,6,7,{8}8/1,2/7,
3/6,4qq3[4:1]/5pp6[4:1],,4/5,,,,B8/B1/A1/A8/D1/E1f,
,5/3h[8:1],,8/1>4[8:1],2,1/8<5[8:1],7,8/1,
,7qq4[8:3],,8>3[8:1],B6/E6/B5,8,,1xh[8:1],
,8xh[8:1],,1/8<5[8:1],7,8/1>4[8:1],2,1/8,
,2pp5[8:3],,1<6[8:1],B3/B4/E4,1,,8xh[8:1],
,1xh[8:1],,2-5[8:1],1,7-4[8:1],8,2-5[8:1],
1,7-4[8:1],8,7-3-1[4:1],,5xh[8:1],,4xh[8:1],
,3xh[8:1],,7-4[8:1],8,2-5[8:1],1,7-4[8:1],
8,2-5[8:1],1,2-6-8[4:1],,4xh[8:1],,5xh[8:1],
,6xh[8:1],,5/3h[8:1],5,6/2h[8:1],6,7/1h[8:1],
7,8qq4[2:1]*pp4[2:1],,,,,,,,2,
3,4/6h[8:1],4,3/7h[8:1],3,2/8h[8:1],
2,1pp3[2:1]*qq7[2:1],,,,,,,5,
4,3,2-5[8:1],1,7-5[8:1],8,2-4[8:1],
1,7<2[2:1],{4}8,{8}B6,B5,B4,B3,
4,5,6,7-4[8:1],8,2-4[8:1],1,7-5[8:1],
8,2>7[2:1],{4}1,{8}B3,B4,B5,B6,
8/1,7/2,{32},,,,,1,2,3,{2}4h[32:53],
{32},,,,,,,,,,,,,8,7,6,{2}5h[4:7],
{8},,,3h[8:1],,2h[8:1],,1h[8:1],
,8h[8:1],,7h/6h,,7h/6h,,6b/7b,
{32},,,,7b/6b,5/8,1/4,3/2,,,,,{8}6/3,7/2,1-3[8:1]/8-6[8:1],5/4,1-5[8:1]/8-4[8:1],
,1>4[8:1]/8<5[8:1],,1/8,,,,3/6,
,4qq3[2:1]/5pp6[2:1],,4b/5b,,,,,,2h[8:1]/6h[8:1],
{16},,5b/1,2,3,4,1b/5,6,7,8,5b/1,2,
3,4,{8}1b/5,{32},,,,,6/3,,,{8}7/2,1>3[8:1]/8<6[8:1],5/4,1s5[8:1]/8z4[8:1],
,1>4[8:1]/8<5[8:1],,1/8,,2h[8:1]/7h[8:1],{32},,,,,3/6,,,,,,,,4qq1[32:19]/5pp1[32:19],
,,,,,,,4/5,{4},,{16},,,{8}2h[8:1]/7h[8:1],
{16},,1b/8h[4:3],2,3,4,5b,6,{8}7,{16}1b,2,
3,4,{8}5b,,3,2,1-3[8:1]*-4[8:1],8,1-6[8:1]*-7[8:1],
,1w5[8:1]*w5[8:1],,1,,7h[8:1],,6h[8:1]/1-3[8:1],
,5h[8:1]/1-5[8:1],,6h[8:1]/1>3[8:1],,7h[8:1]/1pp5[8:3],,8-6[8:1],
{32},,,,,,,,,,,,4,3,2,1,8,7,6,5,4,3,2,1,8,7,6,5,{8}4/8xh[8:1],
,7h[8:1],,6,7,8-6>5[8:1]*-5[8:1],1,8-3[8:1]*-2>3[8:1],
,8w4[8:1]*w4[8:1],,8,,2h[8:1],,5/1h[8:1],
,6/2h[8:1],,7/3h[8:1],,8/4h[8:1],,1/5h[8:1],
,2/6h[8:1],{96},,,,,,,,,,,,6/2,,,,,1/5,,,,{32}4/8,{96},3/7,,,,2/6,,,,{32}1/5,{96},8,,,,7,,,,{32}6,{96},5,,,,4,,,,{32}3,,,,,{8}2/1,
3/8,7/4,4/5,4,{16}4,5,{8}4,3,
3,{16}3,4,{8}3,4/5,4,{16}4,5,{8}4,4/5,
4/5,{16}4,5,4,5,{8}3,3,{16}3,4,{8}3,4/5,
4/5,{16}4,5,{8}4,4,{16}4,5,4,6,5,4,{8}3,
3,{16}4,5,{8}4,{16}3,4,{8}3,{16}6,5,{8}6,3/4,
5/4,{16}6/5,4,{8}3,3,4,{16}4,5,4,3,{8}4,
4/5,{16}3/6,4,5,6,{8}3/4,4/5,{16}6,5,{8}6,4/3,
4/3,{16}6,5,6,3,4,5,{8}6,2h[8:1]/7h[8:1],,8/1h,
8/1h,5/4h,{16}4/5h,,,2,{4}2h[2:1],{8}4,5,
6,4,5,{16}6,5,6,5,{8}1v4[8:1]/8-5[8:1],2/7,1/8,
,7,{32}7h[2:1],,,,,4,,,{8}5,4,3,5,
4,6-3[8:1]/7-2[8:1],{4}8/5,{8},3-1v8-6[4:1]*-1v8-6[4:1],,3,
{16},,,,,,,1,{8}1h[8:5],2,3,4,
5,{32}6,5,4,3,,,,,{8}8>5[16:3]/1<8-5[16:3],,8v1-3[4:1]/1v8-6[4:1],{16},,,,,,,4,
{8}5,7/3,2/8,1pp5[8:3]*qq5[8:3],B2/B3/E3/B8/E8/B7,1,
,,,8,2-6[8:1],8-4[8:1],2,8,
,,,1/5,1/5,2/6,2/6,3/7,
3/7,4/8,4/8,{32}5/1,4,3,2,1,8,7,6,{8}5/C,,,,,,1>3[8:1],
8<6[8:1],1-4[8:1],{4}8-5[8:1],
{8},,,4-6<7v1>2-4[8:3],,4,,,{4}C,
3h[32:11]/5h[32:11],{16},,,1-5[8:1]/8-4[8:1],,,,8/1,
,,,4xpp4[4:1]*qq4[4:1],,,,,,,,,,,,,,,{8}1,
2/8,2/8,3/7,3/7,4/6,6/4,
5,5qq3[32:3]*pp7[32:3],{4}5-1[16:9],{8},,,,,,,6,
7,8-6[8:1]*-4[8:1],1,8-5[8:1]*-3[8:1],
,8-4[8:1]*-2[8:1],,8,{16},,,,,,,1w5[8:1],
,,,1,,,,5-1[4:1],,,,1pp2[4:1]*qq8[4:1],,,,,,,,,,,2b,
1,2,1,3b,8,3,8,4b,7,
4,7,{32}5b,6,7,8,1,2,3,4,{8}5/6,8,1-3[8:1]*-6[8:1],8,1-4[8:1]*-5[8:1],
,1-6[8:1]*-7[8:1],,1,,3h[8:1],{16},,4/2h[8:1],5,
{8}6,7/8,{16},,,2-6[8:1],4-8[8:1],,,2,{4}4,
{16},,,1/8p5[2:1],,7/2,,8/1-4[4:1],,,,,,,,,,,,,,,{8}6,
7,8qq6[8:1]*pp2[8:1],1,8-5[8:1]*-3[8:1],
,8q4[8:1]*p4[8:1],,8,,7h[8:1]/1h[8:1],,2h[8:1]/8-6[8:1],
8,3h[8:1]/8-4[8:1],,5h[8:1]/8<1[4:3],,4h[8:1],,3h[8:1],
{16},,,,,,5,6,7,8,{32}1,2,3,4,5,6,7,8,{8}1/2,
3/8,7/4,4,3,2,1>2-5[8:1]*<8-5[8:1],8,1v4[8:1]*v6[8:1],
,1pp3[8:1]*qq7[8:1],,1,,8h[8:1]/1h[8:1],,6h[8:1]/7h[8:1],
,1h[8:1]/2h[8:1],{16},,3,4,5,6,7,8,1,2,{32}A3,D4,A4,D5,
A5,D6,A6,D7,A7,D8,A8,D1,A1,D2,A2,D3,A3,D4,A4,D5,A5,D6,A6,D7,A7,D8,A8,D1,A1,D2,A2,D3,A3,D4,A4,D5,
{4}A5/Cf,{8}8/2,{32}7x,6,5,4,{8}3,7/1,2/6,{32}3x,4,5,6,
{8}7,{32}4x,3,2,1,{8}8,{32}3x,4,5,6,{8}7,6/3,5/4,{16}7/2,6/3,
{8}4/5,{32}5x/4x,3,2,1,8,7,6,5,4,3,2,1,{8}8,7/6,5/8,4/1,
3/2,{32}1x,2,{16}3,{32}7x,6,{16}5,{32}2x,3,{16}4,{32}8x,7,6,5,4,3,2,1,8,7,{16}6,2,1,
2,1,{32}2x,3,{16}4,{32}8x,7,{16}6,{32}2x,3,{16}4,{32}1x,2,{16}3,{32}7x,6,{16}5,{32}8x,7,{16}6,{8}1b,
2b,{16}3,4,3,4,{8}3,6/5,{32}4x/7x,3,2,1,7,6,5,4,1x,2,3,4,
7x,6,5,4,,,{16}2,1,2,1,2,5/4,,,5,4,5,{32}1x,2,3,4,
8x,7,6,5,2x,3,4,5,7x,6,5,4,,,{16}3xh[2:1]/2xh[2:1],{32},,,,,,,,,,,,,,,,,5,
6/4,7/3,{8}2h[8:1]/8h[8:1],{4}A5f,
E
