&title=虚無の思考時間
&artist=内田真礼「俺、ツインテールになります。」
&first=0
&des=Tail_Red
&lv_5=13+
&inote_5=(217)
{1},
{4}3h[4:1],4,5h[4:1],4,
{12}3h[4:1],,,4,,4,5h[4:1],,,4,,,
{4}3h[4:1],4,5h[4:1],4,
{12}3h[4:1],,,4,,4,5,,6,5,,,
{4}6h[4:1],5,4h[4:1],5,
{12}6h[4:1],,,5,,5,4h[4:1],,,5,,,
{4}6h[4:1],5,4h[4:1],5,
{12}6/4,,3,5,,2,4-7b[8:1],,,Cf,,,
{4}2-4[8:1],1,8-6[8:1],1,
{12}1/2,,3,4,,4,5,,5,6,,6,
{4}7-5[8:1],8,1-3[8:1],8,
{12}8/7,,6,5,,5,4,,4,3,,3,
{4}2-4[8:1],1,8-6[8:1],1,
{12}1/2,,3,4,,4,5,,5,6,,6,
{4}7x<3[4:1],3>7[4:1],7<3[4:1],3>7[4:1],
{4}7<7b[2:1],,3h[4:1],,
{4}7^5[8:1],8,1^3[8:1],8,
{12}8/7,,6,5,,5,4,,4,3,,3,
{4}2^4[8:1],1,8^6[8:1],1,
{12}1/2,,3,4,,4,5,,5,6,,6,
{4}7^5[8:1],8,1^3[8:1],8,
{12}8/7,,6,5,,5,4,,4,3,,3,
{4}2xV46[4:1],6V82[4:1],2V46[4:1],6V82[4:1],
{4}2V46V82b[2:1],,5h[4:1],,
{1}5V71[2:1]/1s5[2:1],
{2}2-5-1[2:1],E7/B7/B6,
{12}6V84[2:1],,,,,E2,B1/B2,,,,,,
{2}3V14[2:1],A7/B7/E7,
{12}6qq1[32:19],,,,,4x,4xv1b[32:3],,,,,,
{2}8x-3-5[2:1],E8/E7/B7,
{12}7V51[2:1],,,,,E4,B4/B3,,,,,,
{2}2-6-4[2:1],A8/D8/E8,
{12}6h[12:3],,,,,5,6,,4,5,,3,
{16}4h[4:1],,,,E2,,,,5h[4:1],,,,E3,,,,
{12}4h[4:1],,,D2,,3,4,,4,5,,5,
{4}6h[4:1],E1,5h[4:1],E8,
{12}7h[4:1],,,D1,,5,6,,4,5,,3,
{4}4h[4:1],E3,5h[4:1],E4,
{12}4h[4:1],,,E6,,6,5,,5,4,,4,
{4}3h[4:1],E4/B4,5h[4:1],B2/E2,
{12}7h[4:1],,,8,,1,8x/2x,,6,5x/7x,,3,
{1}2bxqq4[4:3]/4bx,
{1}6bpp4[4:3],
{12}2h[4:1],,,4,,1,8h[4:1],,,B4/E5,,,
{12}6h[4:1],,,4,,8,1,,4,3,,1,
{16}8bxV63[2:1]/2bxV47b[2:1],,,,,,,,,,,,,,,,
{16}4bpp8[2:1]*qq8b[2:1],,,,,,,,,,,,,,,,
{12}7h[4:1],,,5,,8,1h[4:1],,,B5/E5,,,
{12}3h[4:1],,,5,,1,8,,5,6,,8,
{4}1x-4[32:5]/7x,E6,7-3[8:1]/5,E1,
{12}2-5[8:1]/4,,,E7,,,8-4[8:1]/4,,3x,,2x,,
{4}1xV35[4:1],E7/B7/B6,8V62[4:1],E4/B3/B4,
{12}3,,4,5,,3,4,,4,5,,3x/4x,
{4}2xpp6[2:1]/5x,6,7,7,
{4}8qq5[2:1],5,4,4,
{4}3-5[8:1],3/5,7-4[8:1]*-3[8:1]/4,7,
{12}2x/1x,,4,3x/5x,,6,5x/7x,,2,1x/3x,,1x/8x,
{1}2bxpp1b[2:1]/7bxqq8b[2:1],
{12}1/2,,3,4,,1,8,,5,6,,1,
{12}8-6[12:1],,8x,1-5[12:1],,1x,2-4[12:1],,2x,7,,7,
{4}6x-1[8:1]*-2[8:1],6,8-4[8:1]/3-8[8:1],8/3,
{12}2-6[12:1]/6,,1,2,,8,4-8[8:1],,6,4,,,
{12}5/6,,2,1,,4,5,,8,7,,4,
{12}5^7[12:1],,5x,4-8[8:1],,4x,3>1[12:1],,3x,7,,7,
{4}8x<4[4:1],4q8[4:1],8x<4[4:1],4q8[4:1],
{12}8x<4[4:1],,,3,,2,2x-6b[8:1],,,,,,
{12}8/7,,6,5,,8,1,,4,3,,8,
{12}1-3[12:1],,1x,8-4[12:1],,8x,7-5[12:1],,7x,2,,2,
{4}3x-8[8:1]*-7[8:1],3,1-5[8:1]/6-1[8:1],1/6,
{12}7-3[12:1]/3,,8,7,,1,5-1[8:1],,3,5,,,
{12}4/3,,7,8,,5,4,,1,2,,5,
{12}4^2[12:1],,4x,5-1[8:1],,5x,6<8[12:1],,6x,2,,2,
{4}1x>5[4:1],5p1[4:1],1x>5[4:1],5p1[4:1],
{12}1x>5[4:1],,,6,,7,7xw3[8:1],,,,,,
{12}1-5[8:1]/5,,,B7/A7/E7,,,1-5[8:1],,2,1,,,
{12}1-5[8:1]/5,,,A6/B6/E7,,,1p5b[8:1]*q5b[8:1],,,1x,,,
{4}1>5[4:1],5<1[4:1],1-5b[8:1],5,
{24}4/6,,,,5,,3,,,,2,,8,,,3x,4x,5x,6x,,,,1x/7x,,
{12}8x-4[8:1],,,B2/A2/E3,,,8-4[8:1],,7,8,,,
{12}8-4[8:1]/4,,,A3/B3/E3,,,8q4b[8:1]*p4b[8:1],,,8x,,,
{4}8<4[4:1],4>8[4:1],8-4b[8:1],4,
{12}8qq4[32:17],,,,,E3f/B3/A3,,,,,,,
{12}1/8,,2,4,,7,5,,3,1,,6,
{12}8-4[12:1],,8x,2-5[12:1],,2x,6-2[12:1],,6x,4,,4,
{4}1x^6[8:1]/3x-8[8:1],1/3,1-5[8:1]/5-7[8:1],1/5,
{12}8-4[12:1]/4,,1,8,,2,5-1[8:1],,4,5,,,
{12}4/5,,3,1,,6,8,,2,4,,7,
{12}5-1[12:1],,5x,3-8[12:1],,3x,7-3[12:1],,7x,1,,1,
{4}2xV46[4:1],6x-2[32:7],2xV46[4:1],6x-2[32:7],
{12}2xV46[4:1],,,7x,,8,8-4b[8:1],,,Cf,,,
{12}2-5[12:1],,2x,1-6[12:1],,1x,3-8[12:1],,3x,7v4[12:1],,7x,
{12}2q6[12:1],,2x,8-4[12:1],,8x,2^7[12:1],,2x,6,,6,
{4}5x-8b[8:1]/8x-3b[8:1],5/8,1-5b[8:1]/4-8b[8:1],1/4,
{12}7-3[12:1]/3,,8,7,,1,4-8[8:1],,5,4,,,
{12}7-4[12:1],,7x,8-3[12:1],,8x,6-1[12:1],,6x,2v5[12:1],,2x,
{12}7p3[12:1],,7x,1-5[12:1],,1x,7^2[12:1],,7x,3,,3,
{4}7xV53[4:1],3x-7[32:7],7xV53[4:1],3x-7[32:7],
{12}7xV53[4:1],,,2x,,1,1w5b[8:1],,,Cf,,,
{12}1^4[8:1]/4,,,D6/E6/A5,,,8^5[8:1]/5x,,1,8,,,
{12}1^4[8:1]/4,,,D7/B7/B6,,,8^5[8:1]/5^2[8:1],,,8/5,,,
{4}1V35[4:1],5V71[4:1],1-5b[8:1],5,
{24}1/7,,,,4,,6,,,,1,,7,,,2x,3x,5x,6x,,,,1x/7x,,
{12}8^5[8:1],,,D4/E4/A4,,,1^4[8:1]/4x,,8,1,,,
{12}8^5[8:1]/5,,,D3/B2/B3,,,1^4[8:1]/4^7[8:1],,,1/4,,,
{4}8V64[4:1],4V28[4:1],8-4b[8:1],4,
{12}8<1V75[32:17],,,,,Cf,,,,,,,
{12}2-5[8:1]/5,,,A8/E8/E1,,,7-4[8:1]/4,,8,7,,,
{12}2-5[8:1]/5,,,A6/E7/E6,,,7-4[8:1]/4-8[8:1],,,7/4,,,
{4}1>5[4:1],5<1[4:1],1-5b[8:1],5,
{24}8/2,,,,3,,5,,,,2,,8,,,3x,4x,6x,7x,,,,C,,
{1}2bxh[4:11]/8bxh[4:11],
{1},
{1},
{4}2pp1b[2:1]/8qq1b[2:1],,,,
{4}2-5[8:1],1,8-5[8:1],1,
{12}1/8,,2,4,,3,5,,4,6,,5,
{4}7-4[8:1],8,1-4[8:1],8,
{12}8/1,,7,5,,6,4,,5,3,,4,
{4}2-5[8:1],1,8-5[8:1],1,
{12}1/8,,2,4,,3,5,,4,6,,5,
{4}7xV53[4:1],3>7[4:1],7V53[4:1],3>7[4:1],
{4}7V53>7b[2:1],,3h[4:1],,
{4}7-4[8:1],8,1-4[8:1],8,
{12}8/1,,7,5,,6,4,,5,3,,4,
{4}2-5[8:1],1,8-5[8:1],1,
{12}1/8,,2,4,,3,5,,4,6,,5,
{4}7-4[8:1],8,1-4[8:1],8,
{12}8/1,,7,5,,6,4,,5,3,,4,
{4}2x>6[4:1],6V82[4:1],2>6[4:1],6V82[4:1],
{4}2>6V82b[2:1],,6h[4:1],,
{1}1bpp1b[2:1]/8bqq8b[2:1],
E
