&title=ぼくのかみさま
&artist=ワンダーランズ×ショウタイム/羽生まゐご
&first=0
&des=HF_MeLaN
&lv_5=13+
&inote_5=(140)
{4}
,,,,,,,,{32},{128},,,
{8}
7,6,5,4h[4:1],,E8,E7,E6,2,3,4,5h[4:1],,E2,E3,E4,
6,5,4,3h[4:1],,E8,E7,E6,3,4,5,6h[4:1],,2,
7-4[8:1],,87,,3-8[8:1],,34,,7-4[8:1],8,7,2,3-8[8:1],4,3,,
6<3[4:1],1,6,,4>7[4:1],,6,,5<2[4:1],,4,,3-6[8:1],,B2,,
1-3[8:1],,17,,5-8[8:1],,45,,1-3[8:1],7,1,6,5-8[8:1],4,5,,
3qq4[8:3],7,3,,6pp5[8:3],,2,,1q4[8:4],,7,,5-8b[8:1],,5,,
37,6,5h[8:1]/2h[8:1],,6h[8:1]/4h[8:1],,37,6,45,3,6-1[8:1],2v5[8:1],6,2,8,,
7,6,5h[4:1],,3,2,1h[4:1],,6-8[8:1],,6x/2-4[8:1],,2x/1-5b[8:1],,1x,,
46,3,4h[8:1]/2h[8:1],,3h[8:1]/6h[8:1],,45,6,37,2,6-8[8:1],1-5[8:1],6,1,7-5v4b[32:9],,
4,3,2h[4:1],,8,7,6h[4:1],,3,2,1h[4:1],,8,1,2b/7b,,
6-2[8:1],,4-1[8:1]/6,,4/8-5[8:1],,38,,46,7,18,2,3/5-8b[8:1],6,7h[8:1],,
1-7[8:1],2,3/1-6[8:1],,4/1-5[8:1],,12,,
34,2,1-5[8:1]/7,6,5-1b[8:1],6,7,,
8-5[8:1],4,8/3-7[8:1],,3/6-2[8:1],,63,,48,7,56,4,35,26,1h[8:1]/7h[8:1],,
2-5[8:1]/8,37,2b/8b,,7-4[8:1],6,3-1[8:1],2,5,6,7-4[8:1],4-6[8:1],73,2,1h[4:1],,
8-4b[8:1],7,6/8b-6-2-4-7-1-5[4:6],,,,,,,,,,,,,,,,
{16}
6,,6,,6,,6,,6,,4,5,,3,,3,4,3,4,,2,,4,,35,,4,6,,3,,5,
3,,3,,3,,3,,3,,5,4,,6,,6,5,6,5,,7,,5,,46,,3,5,2,4,3,4,
2,,2,,2,,2,,2,,4,3,,5,,4,6,4,6,,3,,5,,26,,1,8,2,7,3,6,
{8}
4>1[8:1],,46,,8<5[8:1],,82,3,4<7[8:1],3,24,1,8>3[8:1],,
78,6,5-7-1[4:1],,2,3,4-2-8[4:1],,8,7,6<2[4:1],,2,3,4,,
5-7[8:1],4,5,,8-4[8:1],,83,,3-1[8:1],4,3,6,8-4[8:1],7,8,,
6,5,4/7h[8:1],,3,4,5/2h[8:1],,6q7[4:2],,Ch[4:2],,,,,,
8,
{32}
E8,E7,E6,,
{8}
3-8[8:1],,3/5-1[8:1],,52,3,48,7,6-2[8:1],2-8-5[16:3],63,4,3,,
4-1[8:1],5,6h[8:1],,5>2[8:1],6,7h[8:1],,6-4-2[16:3],7,8h[8:1],,7,6,51,,
6-4[8:1]/2,37,6<1[8:1]/2,,36,,48,3,25,6,7v4[8:1],4-6-8>1[4:1],73,2,3,,
4,37,2h[8:1]/6h[8:1],,37,26,1h[8:1]/5h[8:1],,26,15,4h[8:1]/8h[8:1],,
15,26,3>6b[4:6]/7h[4:1],,,,E3,,E2,,E1,,E8,,E7,,4,4,35,,
{64}
4x-1[16:8],5x-8b[64:31],,,,,,,
{4},,,{8},
{16}
7-4b[8:1]/2,,36,,2b/7b,,3,3,5-8[8:1],,6,,25,,,,
1<7[8:1]/7,,2,,1-6[8:1]/3,,,,1-5[8:1]/4,,,,13,,,,
2/6-4[8:1],,37,,6-1[8:1]/2,,3,3,6,,4,,3h[8:1]/7h[8:1],,,,
2-5[8:1]/8,,37,,8b-4[8:1]/2b,,,,3-7[8:1]/8,,,,35,,,,
6-4[8:1],,7,,36,,2,,15,,26,,3h[8:1]/7h[8:1],,,,2-5[8:1]/6,,37,,2b/6b,,,,
7<4[8:1],,8,,1-5[8:1],,2,,8,,7,,4b/6,,3/5b,,2b/4,,3/5b,,6v1b[8:1]/4bv1b[8:1],,,,
4/6<4[4:6],,,,
{4}
2h[4:7],,,,,,,,
{8}
4h[8:1]/6h[8:6],,B2,B2,,,B3/B2/E3,,
5h[8:1]/3h[8:6],,B7,B7,,,B6/B7/E7,,
{16}
6,,6,,6/B2,,6/B3,,6,,4,5,,3,,3,4,3,5,,B7/3,,B6/3,,3,,5,4,,6,,
5,7,,7,,7/B1/E2/B2,,7/B3/B4/E4,,7,,4,6,,3,,
2h[16:3],,,A8,,A7/2bx,,A6/2bx,,A5/2bx,,A4/2bx,,
3/5<8b[8:1],,26,,3b/5b,,2,1,3,,45,,6,5,7,,2v5[8:1]/8,,37,,28,,
6,6,4<7[8:1],,3,,4/1-5[8:1],2,3,,2-7[8:1],,3,,26,,5,5,1,,28,,7,3,5,,
6v1[8:1]/2,,3,,64,,3,3,8<5[8:1],,7,,84,3,2,,1-5[8:1],7,3,5,1b,,7,4,6,,35,,2,4,3,,
8-4[8:1]/2,,7,,6<1[8:1]/8,,5,,6/3v5[8:1],,2,,3/8-4b[8:1],,,,8-6-2-5[16:5],,2,,8,,,,,,
1xh[4:1],,,,7x,,6x/4<2[8:3],,,,3bxh[8:2],,,,,,Cf,,,,,,
1>4[8:1]b/8,,27,,1b/8b,,6,5,7,,18,,2,4,3,,5/4-8[8:1],,36,,45,,6,6,1-3-5[8:1],,
27,,1/6-3[8:1],,7,,8-4[8:1],,7,,4/8-2[8:1],,3,3,8-6[8:1],,5,,8,,3,,
45,,36,,1-5[8:1]/8,,27,,8v3[8:1]/1,,7,,18,,,,2/4-1[8:1],,5,,46,,7,7,8-5[8:1],,
1,,82,,3,,46,,7,,1b/8b,,2,4,3b,,6,5,7b,,1,8,2b,,37,,7b>4[4:1]/3bh[4:2],,,,,,,,
{32}
5,6,7,8,1,2,3,4,5,6,7,8,1,2,3,4,
{4}
5b-7-3[4:2]/1b-3-7b[4:2],,,,
{16}
1b/8b,,7,5,6,,45,,43,,2,1,3,8,4,7,5,6,4,,35,,6,,71,,2,8,2,7,2,6,2h[8:1],,
5,4,6,,37,,28,,7,1,6,2,5,3,6,4,7,,18,,2,,35,,6,4,7-4[8:1],2,8,1,7b,,
3,5,2,,18,,27,,3,5,2,6,1,7,2,8,3,,45,,6,,17,,2,8,1,7,2,6,3h[8:1],,
5,4,6,,37,,28,,7,3,5,1h[8:1],,8h[4:1],,,1,,27,,36,,4/5-8b[16:3],,36,,E4,B3,B2,E2,,
E,,,,,,,,
