&title=Aleph-0
&artist=LeaF
&first=0.46
&lv_5=14
&des=Ring
&des_5=Ring
&inote_5=
(125){4}1>8[4:9],,,,,,,,,,,Ch[4:1]/1xs5[8:1],
,5/4>5b[8:3],{8},,,,2h[8:1],
{24}4,3,4,{8}3,{16}2,1,,7,{8}8,6/1,{24}2,5,3,
{8}4,4/5,5x/6x-3[16:1],{16}7,5,{8}6,1/2h[8:1],4,{16}3,4/3,
,6,{8}6/5,{16}7-4[16:1],7,5,5,{8}7,5/3,6/4-1[16:1]*-7[16:1],{16}3,5,
{4}4b,{8}5x/3x-6[16:1],{16}2,4,{8}3,8/7h[8:1],5,{16}6,5/6,
,3,{8}3/4,{16}2,4,3,5,{8}2/6<4[4:1],5/4,{4}6h[4:1],
{8},,5x/3x-6[16:1],{16}2,4,{8}3,5/7h[8:1],8,{16}2,1/2,
,3,{8}3/4,{16}2-5[16:1],2,4,4,{8}2,6/4,3/5-2[16:1]*-8[16:1],{16}6,4,
{4}5b,{8}4x/6x-3[16:1],{16}7,5,{8}6,4/2h[8:1],1,{16}7,8/7,
,6,{8}6/5,{16}4,3,6,7,{8}1-5[16:1]/8-4[16:1],3/6,{4}1/8,
7x/3x-1-7[0.4704##0.8667],(70){8}7-5-3[4:1],5,3-1-7[4:1],1,7,5,
{16}4-6-8[4:1],4h[16:3],,2,{8}8-2-4[4:1],2,4-6-8[4:1],6,8,{16}1,2,
3,4,5,6,7/3,4,5/6,7,8/2h[16:3],1,3,4,4/5,6,7/8h[16:1],1,
2/3,3/2,4/5,6/7,8/1h[16:1],2h[20:1],3h[24:1],4h[28:1],5h[32:1],6h[32:1],7h[32:1],8h[32:1],{32}1,8,2,7,3,6,4,5,
4,4,4,4,3/5,3/5,3/5,3/5,{64},,,,,,,,,,,,,,,,(125)4bh[32:13]/8bh[64:37],{4},{16},,{32},{64}3x,2x,1xh[64:19],,,,,,,,,7x,
6xh[64:9],,,,,,,,,,2x/5x,{32}3xh[8:1]/4xh[8:1],,,,,,4/3<3-1-7-5-3[4:5],{1},{4},,,(166.67){32},
,,1/8,,,,,(125){8}2b/7b,(125.5){16}6,6,(126){8}5/7,(126.5)4/3,
(127){16}2,1,(127.5){8}3/8,(128)6/5,(128.5)8/7,(129){16}6,6/1,(129.5),4,(130){8}5/4-6[0.4561##0.2336],(130.5)3/4-2[0.4543##0.2327],
(131)4-7[0.4526##0.2318],(131.5)4-1[0.4509##0.2219],(132)4-8b[0.4492##0.2301],(132.5)4,(133)4b,(133.5){16}2,2,(134){8}1/3,(134.5)8/7,
(135){16}6,5,(135.5){8}7/4,(136)2/1,(136.5)4/3,(137){16}2,2/5,(137.5),8,(138){8}1/8-2[0.4297##0.2115],(138.5)7/8-6[0.4281##0.2108],
(139)8-3[0.4266##0.21],(139.5)8-5[0.4251##0.2093],(140)8-4b[0.4235##0.2085],(140.5)8,(141)8b,(141.5){16}6,6,(142){8}7/5,(142.5)8/1,
(143){16}2,4,(143.5)3,5,(144){8}2/6,(144.5)8/7,(145){16}2,2/5,(145.5),7,(146){8}4/7-5[0.4062##0.2],(146.5)1/8-4[0.4048##0.1993],
(147)7-3[0.4034##0.1987],(147.5)8-2[0.402##0.198],(148)7<4b[0.4007##0.1973],(148.5)8,(149)7b,(149.5){16}1,1,(150){8}8/2,(150.5)6/5,
(151){16}7,5,(151.5)6,4,(152){8}7/3,(152.5)1/2,(153){16}7,7/4,(153.5),2,(154){8}5/2-4[0.3851##0.1897],(154.5)8/1-5[0.3839##0.1891],
(155)2-6[0.3826##0.1885],(155.5)1-7[0.3814##0.1879],(156)2>5b[0.3802##0.1873],(156.5)1,(157)2b,(157.5)7h[400:49],(158){16}1,7,(158.5)1,7,
(159)2,5,(159.5)4,5,(160){8}3/6,(160.5)5/4,(161){16}3,3/4,(161.5),6,(162){8}6/5-1[0.3661##0.1804],(162.5)4-2[0.365##0.1798],
(163)5-7[0.3639##0.1793],(163.5)4-8[0.3628##0.1787],(164)5-1b[0.3616##0.1782],(164.5)4,(165)5b,(165.5)2h[#0.1812706],(166){16}8,2,(166.5)8,2,
(167)7,4,(167.5)5,4,(168){8}6/3,(168.5)4/5,(169){16}6,6/5,(169.5),3,(170){8}3/4-8[0.3489##0.1719],(170.5)5-7[0.3479##0.1714],
(171)4-2[0.3469##0.1709],(171.5)5-1[0.3459##0.1704],(172)4-8b[0.3448##0.17],(172.5)5,(173)4b,(173.5)7h[#0.1729126],(174){16}1,2,(174.5)3,4,
(175)6,5,(175.5)6,5,(176){8}4/7,(176.5)8/2,(177){16}1,1h[#0.1658783],(177.5),7,(178){8}7-5[0.3333##0.1642],(178.5)3-1[0.3323##0.1638],
(179)7-1[0.3314##0.1633],(179.5)3-5[0.3305##0.0798],(180)7-3b[0.3295##0.1624],(180.5)3,(181)7b,(181.5)2h[#0.1652908],(182){16}8,7,(182.5)6,5,
(183)3,4,(183.5)3,4,(184){8}5/2,(184.5)1/7,(185){16}8,8h[#0.1587143],(185.5),2,(186){8}2-4[0.3189##0.1572],(186.5)6-8[0.3181##0.1568],
(187)2-6[0.3172##0.1564],(187.5)6,(188)2,(188.5)7b,(189){16}7,8,(189.5)7,8,(190){8}7h[#0.1578979],(190.5){16}5,6,
(191)5,6,(191.5){8}5h[400:49],(192){16}4,3,(192.5)4,3,(193){8}4h[#0.1554413],(193.5){16}2,1,(194)2,1,(194.5){8}2h[#0.1542435],
(195){16}7,8,(195.5)7,6,(196){8}7h[400:49],(196.5){16}3,4,(197)3,2,(197.5){8}3h[#0.1519012],(198){16}8,1,(198.5)7,1,
(199)8-4[0.2981##0.147],2,(199.5)7,1,(200){32}8b,Cf,{1},{4},,,{16},,,2,
1,2,1,3,8,4,7,5,6,5,6,
4,5,3,4,2,5,2,5,1,6,2,7,{32}3,4,5,6,7,8,1,2,
3,4,5,6,7,8,1,2,(125){4}3bq5[2:1]/7bq1[2:1],{16},,,,,,,,,,,,7/4,
6,5-1[16:1],7/4,6,5,{8}Ch[2:1],,,,8>3[16:1],
{16}7,7,8q4[16:1],7,7,8,{8}Ch[4:1],{16},,4,4,
5/3,3/5,,,2/5,3,4-8[16:1],2/5,3,4,{8}Ch[2:1],,,,1<6[16:1],
{16}2,2,1p5[16:1],2,2,1,{8}Ch[4:1],{16},,8,7,
6,5/1,2/6,3/7,{4}4>8[2:1]/8<4[2:1],,,,4xqq7[2:1]/8xqq3[2:1],
,,,4/8-3[8:1],
5-1[8:1],6/5-3[8:1]*-7[8:1],
5>6[4:1],5,1-5[8:1],2/1-3[8:1]*-7[8:1],
1qq2[4:1],1/5qq6[4:1],,7>4[8:1],
5p8[4:1],8p3[4:1],3>7[4:1],7<3[4:1],
3,1-5[8:1],1/8-3[8:1],8/2-6[8:1],
2/4pp8[8:3],1>4[8:1],1,1v6[8:1]/5v2[8:1],
,3/7>6[4:3],{8}6,7,8,1,
2,3,{4}4w8[8:1],,6/2,
5/3,(250){8}4/6,6,{16}4,5,{8}4,7/3,7,
{16}4-8[8:1],6,{8}4,7-4[8:1],7,3,3,2,2,
1-5[0.2376##0.4824],1,(125){4}8xh[4:1],{8},,(250)3/7-3[8:1],7,
2-5[8:1],2,6-1[8:1],6,2,2,3/8,8,
{16}2,1,{8}2,3/7,7,{16}2-7[8:1],8,{8}2,6-3[8:1],6,
1-4[8:1],1,5-8[8:1],5,3,3,7,6,
1/5,2,7/3,6,{16}4-8[0.2376##0.4824],5,4,5h[#0.5400009],(125){4}4x,
{8},,(250)7/1,1,{16}6,2,{8}6,3/7,3,
{16}6-1[8:1],4,{8}6,2-6[8:1],2,5,5,4,4,
3-7[0.2376##0.4824],3,(125){4}2h[4:1],{8},,(250)8/1-5[8:1],1,
6-1[8:1],6,2-6[8:1],2,7-5[8:1],7,8-4[8:1],8,
1-5[8:1],1,2-4[8:1],2,6-1[8:1],6,2-5[8:1],2,
8-4[8:1],8,2,2,6,6,4/5,4/5,
3/6,3/6,2/7,7/2,{16}1w5[0.2376##0.2424],8,1,8,(125){4}1>4[8:1]*<6[8:1],
1-5b[16:63],1/8bh[1:4],{1},,,{4},,,{64}4b,
3/7,2/6,1/5,{16}4/8,
E
&lv_7=[宴]14+?
&des_7=an algebraic structure consisting of a set with two binary operations
&inote_7=
(125){4}4?-1b[5.28##0.048],{1},,{4},,,{16},,{24},{48}1/8,
2/7,3/6,4z8[0.0384##0.9552]/5s1[0.0384##0.9552],{4},,,{8}7/3h[8:1],
{24}6,6,4,{8}5-1[0.9552##0.2352],{16}2-4-8[0.9552##0.4704],1,,7-5[0.8352##0.2352],{8}8,5,2,
{4}7,{8}2/6,{16}7/8,6,{8}4h[4:1]/5-1[16:1],3-6[16:1],5,{16}3,8h[8:1],
,,{8}7/1,{16}2/4,3,,5/7,{8}6-2[16:1],5/3,6/2/1?-4[16:1]*-6[16:1],{16}1,8,
{4}1,{8}7/3,{16}2/1,3,{8}5h[4:1]/4-8[16:1],6-3[16:1],4,{16}6,1h[8:1],
,,{8}2/8,{16}7/5,6,4,5,{8}2>2[4:1],3/4,{4}5h[4:1]/2-6[16:1],
{8},,3/7,{16}6/5,7,{8}1h[4:1]/8-4[16:1],2-7[16:1],8,{16}2,5h[8:1],
,,{8}6/4,{16}1/2,3,,8/7,{8}6<1[16:1],5,6/4/2?-5[16:1]*-6[16:1],{16}3,4,
{4}2,{8}6/2,{16}3/4,2,{8}8h[4:1]/1-5[16:1],7-2[16:1],1,{16}7,4h[8:1],
,,{8}3/5,{16}2h[16:1],1h[16:1],8h[16:1],7h[16:1],{8}5`1?w5[16:1],3/7,{4}1,
Cf/B7/B3/A7/A3/8?-3[0.4704##0.8667],(70)1x/8/2?-5[4:1],2`7?-2[4:1],{16}7`1?-4[8:1],1?-6[8:1],,,1x`4?-7[4:1],
1x,,,{4}4`8?-5[4:1],8,{8}3h[8:1],{16}2,3,
4,5,6,7,{4}1$x/8$x/8?-3[0##0.8486]/2?-5[4:1]/7?-2[1.7143##0.8486]/1?-4[2.5629##0.4286]/1?-6[2.7686##0.4286]/4?-7[3.4286##0.8486]/8?-5[4.2686##0.8486],2,7,
{16}1x,1x,,,{4}4,8,{16}3,4,5,6,
{32}3,7,2,8,1-6[1.2771##0.1286],1-5[1.1743##0.1243],1-4[1.0629##0.0662],1w5[0.96##0.1243]*w5[0.96##0.1243],{4},(125){12}1x,{48},,,,,,,,,,,,,,,,5x,5x,{24}5xh[48:11],
{48},4xh[16:7],,,,,,,,,,5xh[48:11],,,,,,,,,,,,,{12}5p4[3.3552##0.3648],6,7,8,1,2,
{16}3,4,5,6,7,8,1,2,{24}3,4,5,6,7,8,{32}1,2,3,4,5,6,7,8,
{48}1,2,3,4,5,6,7,8,1,2,3,4,(166.667){4}5,(125){8}2xh[#0.2400017],(125.5){16}8,1,(126){8}7-4[2.3395##0.229],(126.5)2/6,
(127){16}3-8[2.0932##0.2281],5,(127.5){8}4,(128)2/6,(128.5)4/5,(129){16}5/6,6-1[1.2657##0.2273],(129.5),4/2,(130){8}2-5[1.1451##0.2264],(130.5)5/4,
(131)7b,(131.5)3b,(132)6b,(132.5)2b,(133)7xh[400:49],(133.5){16}1,8,(134){8}2-5[2.2021##0.2158],(134.5)7/3,
(135){16}6-1[1.971##0.2151],4,(135.5){8}5,(136)7/3,(136.5)5/4,(137){16}4/3,3-8[1.1926##0.2143],(137.5),5/7,(138){8}7-4[1.0792##0.2135],(138.5)4/5,
(139)2b,(139.5)6b,(140)3b,(140.5)7b,(141)3xh[400:49],(141.5){16}1,2,(142){8}8-5[2.0799##0.2041],(142.5)6/2,
(143){16}3,5,(143.5){8}4-1[1.6524##0.2034],(144)5/6,(144.5)7,(145){16}1/6,6-3[1.1274##0.2027],(145.5),4/2,(146){8}2-7[1.0204##0.202],(146.5)3/7,
(147)8b,(147.5)4b,(148)6b,(148.5)2b,(149)6xh[#0.2013435],(149.5){16}8,7,(150){8}1-4[1.9706##0.1936],(150.5)3/7,
(151){16}6,4,(151.5){8}5-8[1.5662##0.1929],(152)4/3,(152.5)2,(153){16}8/3,3-6[1.0689##0.1923],(153.5),5/7,(154){8}7-2[0.9678##0.1917],(154.5)6/2,
(155)1b,(155.5)5b,(156)3b,(156.5)7b,(157)1xh[400:49],(157.5){16}8-4[2.4302##0.1829],1,(158){8}7,(158.5)6/2,
(159){16}6,5,(159.5){8}7-5[1.3044##0.184],(160)6/4,(160.5)3,(161){16}2,1,(161.5)2,1-5[0.6467##0.1835],(162){8}2-4[0.9203##0.1824],(162.5)3/5,
(163)7b,(163.5)1b,(164)8b,(164.5)2b,(165)8xh[#0.1818199],(165.5){16}1-5[2.3148##0.1744],8,(166){8}2,(166.5)3/7,
(167){16}3,4,(167.5){8}2-4[1.2426##0.1754],(168)3/5,(168.5)6,(169){16}7,8,(169.5)7,8-4[0.6164##0.1749],(170){8}7-5[0.8772##0.1739],(170.5)6/4,
(171)2b,(171.5)8b,(172)1b,(172.5)7b,(173)3xh[400:49],(173.5){16}4,3,(174){8}5-7[1.7021##0.1676],(174.5)6/4,
(175){16}3,4,(175.5){8}3-1[1.354##0.1671],(176){16}6/2,(176.25),(176.5){8}7,(177){16}8,4,(177.5)8,4,(178){8}8-4[0.6713##0.1667],(178.5)2/6,
(179)5b,(179.5)3b,(180)8b,(180.5)2bh[#0.1662064],(181)6xh[#0.1657486],(181.5){16}5,6,(182){8}4-2[1.6283##0.1604],(182.5)3/5,
(183){16}6,5,(183.5){8}6-8[1.2956##0.16],(184)3/7,(184.5)2,(185){16}1,5,(185.5)1,5,(186){8}1-5[0.6426##0.1596],(186.5)7/3,
(187)4b,(187.5)6b,(188)1b,(188.5)7bh[400:49],(189){16}4,4,(189.5)4,4,(190){8}4<5[3.3065##0.075],(190.5){16}5,5,
(191)5,5,(191.5){8}5<6[2.9091##0.075],(192){16}3,3,(192.5)3,3,(193){8}3<4[2.2904##0.075],(193.5){16}6,6,(194)6,6,(194.5){8}6<7[2.0502##0.075],
(195){16}2,2,(195.5)2,2,(196){8}2>3[1.2887##0.075],(196.5){16}7,7,(197)7,7,(197.5){8}7>8[1.2057##0.075],(198){16}1,8,(198.5)1,8,
(199)1,8,(199.5)1>2[0.1504##0.075],8>1[0.6002##0.069],(200){4}1bs5b[0.6##0.3],,,,,,,4?-1b[2.7##0.1248]/5?-8b[2.7##0.1248],
{16}2,1,2,7,8,7,2,3,2,7,6,7,
3,1,2,8,1,7,8,6,1,1,2,8,3,7,2,6,
1,7,3,6,(125){4}4b/5b,{8},,,,,8/1,
3/7h[8:1],{16}5,6h[8:1]/4-7[1.32##0.1152],,3,{8}2/4xh[2:1],,,,1-5[16:1],
{16}2,8,1,7-3[0.8352##0.1152],,,{8}3/7xh[4:1],{16},,2,2,
,4/5,,,{8}6/2h[8:1],{16}4,3h[8:1]/5-2[1.32##0.1152]*-8[1.32##0.1152],,6,{8}7/5xh[2:1],{16},,,,,,,,1,
7,3,1<6[0.8352##0.1152],,,{8}5/1xh[4:1],{16},,4,3,
2,5/1,6/2,3/7,{4}4pp7[2:1]/8pp3[2:1],,,,{48}6/2,
1/5,4/8,3/7,{3}2v4p8[24:13]/6v4q8[24:13],{12},,,,,,,{4}1/7qq4[8:3],
1-4[4:1],1/6?-1[8:1],
6/3?-7[8:1],3,8$/8?-5[8:1]/3?-8[0.9552##0.2352]/6?-2[1.44##0.2352],8,
3,6,1/8,2-5[1.44##0.2352],
4,6-1[0.9552##0.2352],2/8<5q1[1.44##0.72],6/4>1q5[0.9552##0.72],
C/E8/E4,4x/8x,,3h[4:1]/7-3[1.44##0.2352],
1h[4:1],7xh[4:1],5h[4:1]`1?-4[8:1]*-6[8:1],1/6?v1[8:1]/4?v1[8:1],
,2/8w4[1.9152##0.4752],{32}5,6,7,8,1,2,3,4,6,7,8,1,2,3,4,5,
7,8,1,2,3,4,5,6,{4}8,,2/6,
5/4-8[15.84##7.92],(250){8}3/7,3h[8:1],{16}6,5-1[15.06##7.92],{8}6,4,4h[8:1],
{16}5,3,{8}5v7[14.52##7.92],2,2,1/3,1,8,8,
7/1,7,(125){4}6xh[4:1]/2xh[4:1],{8},,(250)3/5,4v2[12.36##7.92],
{16}6,5,6,5p8[12.06##7.92],{8}7,3,5,1,7,7h[8:1],
{16}4q1[11.28##7.92],5,{8}4,6,6h[8:1],{16}3,4,{8}3,5pp7[10.56##7.92],5,
4,6,3,3,{16}4qq2[9.84##7.92],2,4,2,{8}5,5s1[9.48##7.92],
6/2,2,7/3,7,8/4z8[8.88##7.92],4,(125){4}5xh[4:1]/1xh[4:1],
{8},,(250)6/2,6h[8:1],{16}3,4p2[7.38##7.92],{8}3,5q7[7.2##7.92],5h[8:1],
{16}4,6,{8}4,7,7,8/6,8,1,1,
2/8,2,(125){4}3xh[4:1]/7xh[4:1],{16},,,,(250)1,8,1,8,
1,8,1,8,1,8,1,8,{4}1h[4:1],{8}7,7h[8:1],
{16}4qq1[3.6##7.92],5,4,5,{8}2,2h[8:1],{16}5pp8[3.12##7.92],4,5,4,{8}6,6h[8:1],
8,8h[8:1],4,4h[8:1],{4}2h[4:1],{16}8,1,8,1,
7,2,7,2,6,3,6,3,5V37[1.2##7.92],4V62[1.14##7.92],5V38[1.08##7.92],4V61[1.02##7.92],(125){4}5xw1b[8.64##0.24],
4xw8b[8.16##0.24],(250)5xh[#7.679993]/4xh[#7.679993],{1},,,,,,,{4},,{8},,
{4}5b/4b,
E
