&title=初恋のひと。
&artist=高嶺のなでしこ
&first=0.1
&first_5=0.1
&des=凡絵
&des_5=凡絵
&lv_5=13
&inote_5=(92)
{1}
,
{2}
3h[2:1],4h[2:1],
{2}
5h[2:1],6>3[8:1],
{2}
6h[2:1],5h[2:1],
{2}
4h[2:1],3<6[8:1],
{8}
3x/5x,3,4/6,6,2x/5x,2,3/7,7,
{8}
3hx[8:1],4h[8:1],5h[8:1],6h[8:1],7xp3[8:1],,,,
{8}
4x/6x,6,3/5,3,4x/7x,7,2/6,2,
{8}
6hx[8:1],5h[8:1],4h[8:1],3h[8:1],2xq6[8:1],,,,
{8}
5h[8:3]/C,1-7-2-6-3-5[8:3],,,,,,7,
{8}
7h[8:3],3-5-2-6-1-7[8:3],,,,,,6h[8:1],
{8}
4h[8:1],2h[4:1],,1-3-8[8:1],8-4-7[8:1],7<3[8:1],,,
{8}
D3f,,,,1,8h[16:1],1>3[16:1],1<7[16:1],
{16}
1-4[16:1]*-4[16:1],,1-6[16:1]*-6[16:1],,1-5b[16:1],,1,,1,,,,,,6,6,
{16}
4,4,,7h[16:1],3h[2:1],,D8,,E1,,D2,,,,1,1,
{16}
3,3,8,8,4h[2:1],,D8,,E7,,D6,,,,5,5,
{16}
3,3,6,6,2h[2:1],,D7,,E8,,D1,,,,8,8,
{16}
4h[2:1],,7h,,5h,,3h,,1h,,6h[64:1]/B6,,3h[64:1]/B3,,8h[64:1]/B8,1,
{16}
7,7,2,2,6h[2:1],,D3,,E4,,D5,,,,5,5,
{16}
6,6,4,4,7h[2:1],,D4,,E3,,D2,,,,1,1,
{16}
7,7,2,2,6h[2:1],,D2,,E1,,D8,,,,8,8,
{32}
5h[2:1],,,,2h,,,,4h,,,,6h,,,,8h,1,2,3,4,5,6,7,8h,,,,4x/5x,,3/6,,
{8}
2x/7x-4b[16:1],B1/B2/B3,7x,3x/5x,1x-6b[16:1]/7x,B3/B4/B5,1x,4x/5x,
{16}
2x-5b[16:1]/7x,,B6/B7/B8,,2x,,4x/6x,3/7,2x/8x-3b[16:1],,B4/B5/B6,,8x,,2x/7x,3/6,
{16}
4x-1b[16:1]/5x,,B6/B7/B8,,4x,,3x/6x,2/7,1x/8x-5b[16:1],,B2/B3/B4,,8x,,1x/6x,,
{16}
3x-8b[16:1]/7x,,B5/B6/B7,,3x,,4x/6x,3/7,2x-5b[16:1]/8x-5b[16:1],,B1/B2/B8,,2x/8x,,,,
{8}
5h[8:3],A3,D4,A4,6h[8:3],E3,B3,B4,
{8}
7h[8:3],A2,B2,C,8h[8:3],A1,E1,B8,
{8}
1h[8:3],A6,D6,A5,2h[8:3],E7,B6,B5,
{8}
3h[8:3],A7,B7,C,4h[8:3],A8,E1,B1,
{8}
6h[8:3],D4,E3,D2,7h[8:3],2x,3x,4x>1[4:1],
{8}
E6,B6,B7,E8,8hx[8:3],7x,6x,5x,
{8}
4x>8[4:1],,8<4[4:1],,4x>8[4:1],,8<8<4[4:3],,
{1}
Ch[2:1],
{16}
5,4,4,5,3,3,5,2,2,5,1,1,5h[8:1],,6h[8:1],,
{16}
7h[16:7],,,,A1,,B3,4h,6h[16:3],,,3h,5h[16:3],,,2h,
{16}
4h[16:3],,,1h,3h[4:1],,,,2h[16:3],,,5h,3h[16:3],,,6h,
{32}
4h[8:1],,,,7h,,,,5h[8:1],,,,2h,,,,3h[8:1],,,,8h,7,6,5,1h,2,3,4,5,6,7,8,
{16}
1h[2:1],,B1,,C,,B5,,5h[16:3],,,2h,6h[4:1],,,,
{2}
4h[2:1],5h[2:1],
{8}
3h[2:1],,,,6h[2:1],,C,B2,
{16}
2hx[2:1],,,,,,,,7h[2:1],,,,,,C,B1,
{8}
1hx[2:1],,D1,E8,D7,,,,
{16}
D7/3x,A6,D6,A5,A4,D4,A3,D3,D7/3x,A6,D6,A5,A4,D4,A3,D3,
{16}
A7/2x,E7,B6,B5,B4,B3,E3,A2,A7/2x,E7,B6,B5,B4/7x,B3,E3,A2,
{16}
D7/3x,A6,D6,A5,A4,D4,A3,D3,D7/3x,A6,D6,A5,A4,D4,A3,D3,
{8}
Chf[2:1],,,,8hbx[64:1]/D1/E1/B8/D8/E8,6hbx[64:1]/B6/D6/E6/D7/E7,4hbx[64:1]/B4/D4/E4/D5/E5,2hbx[64:1]/B2/D2/E2/D3/E3,
{16}
8,4,8-2[16:1],4,8-6[16:1]*-6[16:1],,8x-4b[16:1],,8x,,8bx,,,,2,6,
{16}
2,6,2-8[16:1],6,2-4[16:1]*-4[16:1],,2x-6b[16:1],,2x,,2bx,,,,5,1,
{16}
5,1,5-7[16:1],1,5-3[16:1]*-3[16:1],,5x-1b[16:1],,5x,,5bx,,,,5,4,
{32}
5h[2:1],,,,2h,,,,4h,,,,6h,,,,8h,1,2,3,4,5,6,7,8h,,,,4bx/5bx,,3/6,,
{48}
2x/7x-4b[16:1],,,,,,7bx,E8,E1,A1,,,7bx,,,,,,3bx/5bx,,,,,,1x-6b[16:1]/7x,,,,,,1bx,E2,E3,A3,,,1bx,,,,,,4bx/5bx,,,,,,
{48}
2x-5b[16:1]/7x,,,,,,2bx,E2,E1,A8,,,2bx,,,,,,4bx/6bx,,,3/7,,,2x/8x-3b[16:1],,,,,,8bx,E8,E7,A6,,,8bx,,,,,,2bx/7bx,,,3/6,,,
{48}
4x-1b[16:1]/5x,,,,,,4bx,E5,E6,A6,,,4bx,,,,,,3bx/6bx,,,2/7,,,1x/8x-5b[16:1],,,,,,8bx,E1,E2,A2,,,8bx,,,,,,1bx/6bx,,,,,,
{48}
3x-8b[16:1]/7x,,,,,,3bx,E4,E5,A5,,,3bx,,,,,,4bx/6bx,,,3/7,,,2x/8xw4b[16:1],,,,,,2bx,B2,C,B6,,,8bx,,,,,,,,,,,,
