&title=█████EFD█████
&artist=███VRIGGER███
&first=0.85
&des=████████████
&lv_1=█
&inote_1=(87)
{4}6qq1[2:3]/4pp1[2:3],,,,,,,{64},,,,,,,,,,,
(88){256},
(87.5)
{64}28,37,46,5<4[2:3],{16},,,,,4,4,5,,3,5,4,4,{32}6,5,6,,4,5,4,5,3,,3,,6,5,6,5,{8}7,7,7,{16}7,8,8,8,
{64}71,62,53,4>5[8:9],{16},,,6,5,6,5,7,,{32}4,,5,,3,,3,,4,,4,,3,4,3,,2,,2,,3h[32:1],,3,,4,,,,
{2}A7h[8:1]f/E7h[4:1]/B7h[8:3]f/A3h[8:1]/E3h[4:1]f/B3h[8:3],
(175)
{8}2b/6,5-7^8[8:1],4,3/5b,{16}2-4[12:1],,1,8,2b,,7,,5-2[8:1],6,4-8[8:1],6,5b,,,,1h[4:1],,7b,,6q2[8:1],,5,,4b/6,,5p1[8:1],,1x,,5b/8,,7-3[8:1]b,,6,,7b/5h[4:1],,,,A8h[2:1]f/E8h[4:3]/B8h[4:3],,,,A4h[2:1]f/E4h[4:1]/B4h[4:1],,,,,,,,,,,,
{32}1b/5b,26,37,4/8p4[8:1],{16},,2,,1b/8,,3-8[8:1],,4,5,3b,,5,,1-5[8:1],6,8-6[12:1],6,1b,,8-4[8:1],,1,,8b/2,,3-1[8:1],,45,,6b,,7-4[8:1],,8,,7/1b,,2,3,2,3,2h[4:1],,,,A8h[2:1]/E8h[4:3]/B8h[4:3],,,,A4h[2:1]/E4h[4:1]/B4h[4:1],,,,,,,,,,,,
{32}4b-7[8:1]/8b-3[8:1],37,26,15,,,,,{4},{32}4bq8[8:1]/8bq4[8:1],37,26,15,,,,,{4},
{32}3bv6[8:1]/7bv2[8:1],26,15,84,,,,,{4},{32}3bq7[8:1]/7bq3[8:1],26,15,84,,,,,{4},
{32}8b,7,6,,{16}4,4,5,,{32}3b,2,1,,{16}6,,8,8,{32}7b,6,5,,1b,2,3,,5h[8:1],,,,4b,3,2,,6b,7,8,,{8},1bw5[8:1],,1b,,
{32}2b/8b,73,4h[32:14]/6h[32:22],,,,,,,,,,,,,,,3,2h[32:6],,,,,,,37,4h[32:22]/8h[32:14],,,,,,,,,,,,,,,7,6h[32:6],,,,,,,37,2-5[12:1]/8-5[12:1],,,,,,2b/8b,,,,,,,,
{32}1b,2,3,,{16}5,5,4,,{32}6b,7,8,,{16}3,,1,1,{32}2b,3,4,,8b,7,6,,4h[8:1],,,,5b,6,7,,3b,2,1,,{8},8bw4[8:1],,8b,,
{1}1^2-5[58.33#4:1]`7v5^6-8^1[58.33#4:1]b,,{4}C,C,C,C,Ch[4:3]f,E7h[4:2],E3h[4:1],,
{32}6b/2b,37,48,15,,,,,{8},1b-7[12:1],51,,4b-2[12:1],,4,5,6b-8[12:1]/2,,3,3b-5[12:1],8,1,2b-8[12:1],,6,5b-3[12:1],5,,8b-5[8:1],7,6h[4:3]/8-4[8:1],,8-3[8:1],,8-2[8:1],,8,,
{32}7b/3b,26,15,48,,,,,{8},4b-6[12:1],48,1,2b-8[12:1],,7,6,5b-3[12:1],5,1b-7[12:1],1,3,3,3<7[2:1]/7>3[2:1],,,,,,,,
{32}A8f,D8,A7,,,,,,A4f,D4,A3,,,,,,A7f,D7,A6,,,,,,A3f,D3,A2,,,,,,
{16}1-4[2:6]/4,,,,8,7,8,7,8,,6,7,6,,,,B7h[4:1],,B6h[8:1],,E7/D7,,,,E6h[4:1],,E8h[8:1],,E7/D7,,,,78,,6,8,7,,1-4[8:1]b/8,,7,,15,6,7,,7,,38,,27,,16,,,,
{32}1b/6b,27,38,,,,,,3b/8b,27,16,,,,,,
{16}5-8[2:6]/8,,,,3,4,3,4,3,,1,2,1,,,,B3h[4:1],,B2h[8:1],,E3/D3,,,,E2h[4:1],,E4h[8:1],,E3/D3,,,,34,,2,4,3,,5-8[8:1]b/4,,3,,51,2,3,,3,,74,,63,,52,,,,
{32}2b,B2f,,,1b,B1f,,,8b,B8f,,,7b,B7f,,,E
&inote_6=
