&title=弹舌
&artist=MC赵小六
&first=0.08
&des=Jack vs ぴちネコ vs はっぴー
&des_7=Jack vs ぴちネコ vs はっぴー
&lv_7=AM
&inote_7=(145)
{4},,,,,,,,,,,
(187)
{4}1-6[8:1],1-4[8:1],7-3[8:1],1,
{4}6-8[8:1],8v1[16:3],1-3[8:1],3,
{4}2v5[8:1]/8v5[8:1],2/8,1v4[8:1]/7v4[8:1],1/7,
{4}2v5[8:1]/8v5[8:1],2/8,1v4[8:1]/7v4[8:1],1b/7b,
{16}2b/5b,,3,,4/7>2[8:1],,6,,3,3,,4,,7,5,,
{16}4/6,4/6,,,2<7[8:1]/5,,3,,6,6,,5,,2,4,,
{16}2/5,,3,,4/7>2[8:1],,6,,3,3,,4,,7,5,,
{16}4/6,4/6,,,2/5,,3,,4/5,,,2/4,,,5/7,,
{16}2/5,,3,,5/7>2[8:1],,6,,3,3,,4,,7,5,,
{16}4/6,4/6,,,2<7[8:1]/4,,3,,6,6,,5,,2,4,,
{8}5/7,6,2/4,3,6/8,7,1/3,2,
{16}3/6,,,,4/5,,3/6,,1-5[8:1]/8-4[8:1],2/7,3/6,,1b/8b,,,,
{8}2>5[8:1]/5-1[8:1],1/4,,,4-8[8:1]/7<4[8:1],5/8,,,
{16}3,4,3,2,3-1[8:1],4,3,2,3-5[8:1]*-7[8:1],,,,,,,,
{8}3-8[8:1]/7-5[8:1],2/6,,,2-4[8:1]/6-1[8:1],3/7,,,
{8}8-4[8:1],7,1-5[8:1],2,7-4[8:1],8,1,1,
(185)
{8}4-8[8:1]/7<4[8:1],5/8,,,2>5[8:1]/5-1[8:1],1/4,,,
{16}6,5,6,7,6-8[8:1],5,6,7,6-2[8:1]*-4[8:1],,,,,,,,
{8}2-4[8:1]/6-1[8:1],3/7,,,3-8[8:1]/7-5[8:1],2/6,,,
{8}1-5[8:1],2,8-4[8:1],7,1w5[8:1],2,,,
(187)
{16}7/8,,4,,1/2,,5,,7-4[8:1]/8-4[8:1],7/8,7/8,,7b/8b,,,,
{16}2/6,,7,8,,2,1,,3-7[8:1],2/4,1/5,,3,,,,
{16}5/6,,3,,7/8,,2,,4/8,3/7,2/6,1/5,4q8[8:1]/8q4[8:1],,,,
{16}4>1[8:1]/8<5[8:1],,,,4/8,,,,1b/3h[16:3],,,6h[16:3],,,8,,
{16}1/2,,5,,7/8,,4,,1-5[8:1]/2-5[8:1],1/2,1/2,,1b/2b,,,,
{16}3/7,,2,1,,7,8,,6-2[8:1],5/7,4/8,,6,,,,
{16}3/4,,6,,1/2,,7,,3,3,6,6,1,1,8,8,
{48}2,,,7,,,3,,,6,,,4/5,,,,,,4/5,,3/6,,2/7,,1s5[8:1]/8z4[8:1],,,,,,,,,,,,1b/8b,,,,,,,,,,,,
{32}1,2v5[32:3]/8v5[32:3],3/7,4/6,5,,,,2b/8b,,,,,,,,6q2[8:1],,,,6,,,,5-1[8:1],,,,5,,,,
{8}4-8[8:1],4,3p7[8:1],3,4-8[8:1],4,5-1[8:1],5,
{8}6<1[8:1],6,5-1[8:1],5,4-8[8:1],4,3>8[8:1],3,
{16}4,,5,,1/6,,3/8,,1-5[16:1],5,3,7,1b,,,,
{8}1-5[16:1],8-6[16:1],1-3[16:1],8-4[16:1],1-6[8:1],8-3[16:1],1>4[16:1],8<5[16:1],
{32}1,,,,8,,,,1b,2,3,4,5,6,7,8,1-5[8:1],,,,,,,,,,,,,,,,
{8}1v4[8:1],4>1[8:1],6,7,8v5[8:1],5<8[8:1],2,3,
{32}4>1[16:1],,,,4,,,,8,7,6,5,8,7,6,5,4bv7[8:1]*v1[8:1]/8b,,,,,,,,4b,,,,,,,,
{8}1-6[8:1]/6-1[8:1],1-4[8:1]/6,,,5>2[8:1]*<8[8:1],5,5,,
{8}3-8[8:1]/8-3[8:1],3/8-5[8:1],,,4>1[8:1]*<7[8:1],4,4,,,,,,,,,
{48}1b,8b,7b,6bV85-1[4:1],5b,4b,,,,,,,6,,,,,,,,,4V25-8-6[16:3],,,,,,,,,,,,4>1[8:1]*-1[8:1],
