&title=JANE DOE
&artist=米津玄師; 宇多田ヒカル
&first=0
&des=伍舟之雨
&lv_5=13+
&inote_5=(134)
{1},,,,{8},,,,
{24}2h[24:16],,,,4h[24:12],,,,,,,,,,,,,,
{24}3h[24:16],,,,5h[24:12],,,,,,,,,,,,,,
{24}4h[24:16],,,,6h[24:12],,,,,,,,,,,,,,
{24}3h[24:16],,,,1h[24:12],,,,,,,,,,,,,,
{24}2h[24:16],,,,8h[24:12],,,,,,,,,,,,,,
{24}1h[24:16],,,,7h[24:12],,,,,,,,,,,,,,
{24}5p3[6:3],,,,3,,,,,,,,,,,,,,
{24}2h[24:12],,,,8h[24:8],,,,,,,,,,,,,,
{24}6h[4:1],,,,,,5h[4:1],,,,,,4pp5[6:2],,,,,,
{24}1,,,,,,2,,,,,,3>8[6:1],,,,,,
{24}7h[4:1],,,,,,6h[4:1],,,,,,5pp6[6:2],,,,,,
{24}1,,,,,,2,,,,,,3<6[6:1],,,,,,
{24}1h[4:1],,,,,,7h[4:1],,,,,,5h[4:1],,,,,,
{24}2<7[6:1],,,,,,6,,,,,,3<6[6:1],,,,,,
{24}8q1[8:4],,,,,,8h[4:1],,,,,,,,,,,,
{24}7,,,,E6,,E4,,,,,,2>4[6:1],,,,,,
{24}1pp4[6:3],,,,,,8,,,,,,7,,,,,,
{24}6h[4:1],,,,,,5h[4:1],,,,,,4qq5[6:3],,,,,,
{24}8,,,,,,7,,,,,,6<1[6:1],,,,,,
{24}2h[4:1],,,,,,3h[4:1],,,,,,4pp5[6:2],,,,,,
{24}1,,,,,,2,,,,,,3>1[8:1],,,,,,
{24}4h[4:1],,,,,,8,,,,,,6<8[8:1],,,,5,,
{24}5pp8[6:3],,,,,,4,,,,,,3,,,,,,
{24}2,,,,E4,,E6,,,,,,7,,8,,6,,
{24}1>5[4:1],,,,,,5,,,,,,6p1[4:1],,,,,,
{24}8,,,,,,2,,,,,,8,,3,,5,,
{24}4qq3[6:2],,,,,,6,,,,,,8-4pp5[6:3],,,,,,
{24}1,,,,,,2,,,,,,3>8[6:1],,,,,,
{24}7,,,,,,6h[4:1],,,,,,5h[4:1],,,,,,
{24}4h[4:1],,,,,,1pp3[6:1],,,,,,6pp8[6:1],,,,,,
{24}2h[24:4],,,,,,1xh[24:4]/3h[24:4],,,,,,6h[24:4]/8h[24:4],,,,,,
{24}7,,,,E6,,E4,,,,,,2<6<3[6:11],,4,,5,,
{24}7,,,,,,,,,,,,,,,,,,
{24},{48}E5,B5,{24},,,,,,,,,,,,,,,,
{48}E7,B7,{24},,,,,,,,,,,,,,,,,
{48},,E1,B1,{24},,,,,,,,,,,,,,,,
{24}E3,E4,A4,,,,,,,,,,,,,,C,,
{24}E7,E6,A5,,,,,,,,,,,,,,,,
{24}4-1[45#24:2]/5-8[22.35#24:1],,,,,,,,,,,,,,,,,,
{24},,,,,,,,,,,,,,,,,,
{24},,,,,,,,,,,,,,,,,,
{24},,,,,,,,,,,,{48}A3,D3,D4,A4,D5,A5,D6,A6,D7,A7,D8,A8,
{24}D1f/4bx,,,,,,15,,,,,,3,,4,,1,,
{24}6b/8>4[4:1],,,,,,4V68[4:1],,,,,,8,,,,1,,
{24}1V35[8:3],,,,,,5,,,,,,7,,,,1,,
{24}3b/7b,,,,,,3h[4:1]/5,,,,,,2-6-4b[8:2],,,,,,
{24}87/2b,,,,,,8,,,,,,3,,5,,1,,
{24}8>4[4:1]/7b,,,,,,4V62[4:1],,,,,,7,,,,1,,
{24}1pp1[6:2],,,,,,7,,,,,,5,,,,,,
{24}8b/5b,,,,,,1/4>1[8:1],,,,,,5<8[8:1]/4,,,,,,
{24}1b/5,,,,,,3/8,,,,,,6,,5,,7,,
{24}3b>8[8:1]/8<5[8:1],,,,,,3qq5[6:2]/8,,,,,,6,,,,7,,
{24}7,,,,,,84,,,,,,1/5V74-8b[6:2],,,,,,
{24}2b,,,,,,3,,,,,,57,,,,,,
{24}1pp4[6:2]/6,,,,,,8,,,,,,8,,,,,,
{24}3b/8qq5[6:2],,,,,,1,,,,,,1,,,,2,,
{24}2z6[8:2]/4<7[8:2],,,,,,,,,,,,,,,,,,
{24}1x>4[4:1]`7xs3[4:1],,,,,,,,,,,,,,,,,,
{24}2x,1x,8x,7x,6x,5x,4x,3x,2x,1x,8x,7x,6xpp4[6:3],,5x,,4x,,
{24}3xb,,,,,,2h[24:10],,,,,,,,,,1,,
{24}3-7[8:1]/7,,,,,,6,,,,8,,1s5[4:1],,,,,,
{24}1/8,,,,,,1,,,,,,3h[8:2]/6,,,,,,
{24}7x,8x,1x,2x,3x,4x,5x,6x,7x,8x,1x,2x,3xqq5[6:3],,4x,,5x,,
{24}6xb,,,,,,7h[24:10],,,,,,,,,,8,,
{24}6-2[8:1]/2,,,,,,3,,,,1,,8z4[4:1],,,,,,
{24}8/1,,,,,,8,,,,,,63,,,,,,
{24}8x<4[4:1],,,,,,4>8[4:1],,,,,,8,,,,5,,
{24}5-3[8:1],,,,,,2-5[8:1],,,,,,6-2[8:1],,,,1,,
{24}1h[4:1],,,,,,8,,8,,5,,7,,7,,4,,
{24}6-4[8:1],,,,3,,2-5[8:1],,,,,,8,,,,,,
{24}6x<2[8:2],,,,,,2>6[4:1],,,,,,6,,,,1,,
{24}1-4[8:1],,,,,,5-1[8:1],,,,7,,7V58[4:1],,,,2x,,
{24}2x,,,,,,3,,3,,8,,2,,2,,7,,
{24}1-5[8:1],,,,5,,5>1[8:1],,,,,,8x,7x,6x,5x,4x,,
{24}1x-5[8:1],,,,,,8-4[8:1],,,,,,7,,,,,,
{24}2h[12:2]/5h[12:2],,,,,,7h[12:2]/4h[12:2],,,,,,2-6[8:1]/5,,,,,,
{24}1-5[8:1],,,,,,8-4[8:1],,,,,,7,,,,,,
{24}1h[12:2]/3h[12:2],,,,,,6h[12:2]/8h[12:2],,,,,,1/3-7[8:1],,,,,,
{24}4-8[8:1],,,,,,5-1[8:1],,,,,,6,,,,,,
{24}86,,,,,,1/3,,,2x,,,75,,6x,,6x,,
{24}24,,3x,,3x,,75,,6x,1x,8x,3x,4x,2x,7x,5x,6x,,
{24}Ch[24:15],,,,,,,,,,E2,{48},,,E1,,,,,,E8,{24},,
{24},,,,,,,,,,,,,,,,,,
{24}3/6,2,1,8,7,6,3,2,1,8,7,6,2bx>7[4:1],,8,,1,,
{24}7>4[4:1],,,,,,4,,,,,,8,,8,,8,,
{24}5qq4[6:1],,,,7,,5,,,,6,,5xw1[8:1],,,,,,
{24}Cf,,,,,,2,,1,,8,,72,,,,,,
{24}6/3,7,8,1,2,3,6,7,8,1,2,3,7bx<2[4:1],,1,,8,,
{24}2<5[4:1],,,,,,5,,,,,,1,,1,,1,,
{24}4pp5[6:1],,,,2,,4,,,,3,,4xw8[8:1],,,,,,
{24}4bx-2-5-1-6[8:3],,,,,,,,,,,,,,,,,,
{24}5/2,6,7,8,1,2,5,6,7,8,1,2,6bx>1[4:1],,8,,7,,
{24}1<4[4:1],,,,,,4,,,,,,1,,1,,1,,
{24}8>3[6:1],,,,6,,8,,,,7,,5xw1[8:1],,,,,,
{24}Cf,,,,,,8,,1,,2,,38,,,,,,
{24}4/7,3,2,1,8,7,4,3,2,1,8,7,3bx<8[4:1],,1,,2,,
{24}8>5[4:1],,,,,,5,,,,,,8,,8,,8,,
{24}1<5[6:1],,,,3,,1,,,,2,,4xw8[8:1],,,,,,
{24}4bx-6-3-7-2-8[4:2],,,,,,,,,,,,,,,,,,
{24}6qq5[12:5],,,{48},,,1>3[12:3],{24},,,,,,,,,,,,,
{24}8pp1[12:5],,,,5>3[12:3],,,,,,,,,,,,,,
{24}7qq5[12:5],,,,{48},3>1[12:3],{24},,,,,,,,,,,,,
{24}8pp1[12:5],,,,5<7[12:3],,,,,,,,,,,,,,
{24},8qq6[24:11],,,,2>4[24:7],,,,,,,,,,,,,,
{24},,7pp1[12:5],,,,5>3[12:3],,,,,,,,,,,,,,
{24}4x,,,5qq4[12:6],,,,,6<8[12:4],,,,,,,,,,,,,,
{24},1,,,2pp3[12:9],,,,,3>6[12:6],,,,,,,,,,,,,,,,,,,,,,5,,,,,4V27[4:5],,,,,,,,8-5-3[4:12],
