&title=『バッハの旋律を夜に聴いたせいです。』
&artist=sakanaction
&first=0
&des=rbhd
&clock_count=4
&lv_5=13
&inote_5=(126){1},,
{4}4,4,4,4/8h[4:1],4,4/5h[4:1],4,4/7h[4:1],4,4,4/6,4/8h[2:1],4,4,4,4/C,
4,{16}4,,E7,E3,{4}5/E2,5,5,5/4h[4:1],5,5/2h[4:1],5,{16}5,,E3,E7,{4}4/E6,4/8h[2:1],4,4,4,4/C,
{8}4,,8/4,,6/4,,4,8,4,7,4,6,4,8,4,6,8/4,,4,7,4,6,4,6,4,7,4,8,8<5[8:1]/4,,4,,
4/5,,1/5,,3/5,,5,1,5,2,5,3,5,1,5,3,1/5,,5,2,5,3,5,3,5,2,5,1,1>4[8:1]/5,,5,,
4/5,,4,6,4,8,4,C,4,8,4,6,4,5,4,6,5/4,,5,3,5,1,5,C,5,1,5,3,5,4,5,3,
4/5,,4,6,4,8,4,C,4,5,1,5,3,5,4,5,2-4[8:1],,1x,,7-5[8:1],,8x,,1-5[8:1],,8-4[8:1],,2-6b[8:1],,Cf,,
{4}4qq2b[4:1]/5pp7b[4:1],Cf/B4/B5,,{8}2/7,{4}2v3-5[8:3]/7v6-4[8:3],,,{8}2/7,{4}1pp4[3:1]/8,
7,5qq2[3:1],7,1pp4[3:1],7,5-2-4[3:1]*pp4[3:1],5bx,,
4qq2b[4:1]/5pp7b[4:1],Cf/B4/B5,,{8}2/7,{4}2v3-5[8:3]/7v6-4[8:3],,,{8}2/7,{4}1pp4[3:1]/8,
7,5qq2[3:1],7,1pp4[3:1],7,5-2-4[3:1]*pp4[3:1],5bx,,
{8}3-1[8:1],,3/4,,8-4[8:1],7,7/8,,5-7[8:1],5,4/5,,8-4[8:1],1,1/8,,
2>4[8:1],,2/1,,5p1[8:1],6,5/6,,8<6[8:1],8,1/8,,5q1[8:1],4,4/5,,
3>1[8:1],4,3/4,,8v5[8:1],8,1/8,,6<8[8:1],5,5/6,,1v4[8:1],1,1/8,,
8<5[8:1],,3,2,1>4[8:1],1,6,7,{4}8z4[4:1],1,{16}E3/A2/D3,,,B3/B4,,,B6,,
{8}1/7,3,2/6,3,1/7,3,4/8,3,1/7,3h[8:1],5,3h[8:1],1,3h[8:1],5,3h[8:1],
7,4,2/5,4,3/7,2/8,3/7,5,1q5[8:1]/5h[4:1],,1,,8h[4:1],6,6,8,
8/2,6,7/3,6,8/2,6,5/1,6,8/2,6h[8:1],4,6h[8:1],8,6h[8:1],4,6h[8:1],
1q5[8:1],1,8h[4:1],,6h[8:1],8h[8:1],6h[8:1],8h[8:1],5>2[8:1],,8p4[8:1],,1h[4:1],,B2/B3/E3,B5/E6,
1/7bx,3,2/6,3,1/7,3,4/8,3,1/7,3h[8:1],5,3h[8:1],1,3h[8:1],5,3h[8:1],
7,4,2/5,4,3/7,2/8,3/7,5,1q5[8:1]/5h[4:1],,1,,8h[4:1],6,6,8,
8/2,6,7/3,6,8/2,6,5/1,6,8/2,6h[8:1],4,6h[8:1],8,6h[8:1],4,6h[8:1],
1q5[8:1],1,8h[4:1],,6h[8:1],8h[8:1],6h[8:1],8h[8:1],5>2[8:1],,8p4[8:1],,1h[4:1],,B4/E4,
(62){1}1x>1>4<8>2>4<6<8>1>2>3<4<5<6<7>8>1>2q5b[384:485]/B7/B6/E7,{3},,{20},
(126){4}4b,4/8<5[4:1],4,{8}4,8v7-5[8:3],{4}4,4,{8}4,8,{4}4/6,
4/8-6v5[8:3],4,4,{8}4,8<6p5[8:5],{4}4,4,4,4,
5,5/1>4[4:1],5,{8}5,1q4[8:3],{4}5,5,{8}5,1,{4}5/3,
5/1pp4[8:3],5,5,{8}5,1>3q4[8:5],{4}5,5,5,5,
{8}4/5,E3,4/6,B3,4/7,E3,4/8<5<8<5<8[8:7],B3,4,A3,4,B3,4,B4,4,B3,
5/4,E7,5/3,B6,5/2,E7,5/1>4>1>4>1[8:7],B6,5,A6,5,B6,5,B5,5,B6,
4/5,E3,4/5,B3,4/6,B7,4/6,E7,3/5,B2,3/5,E3,4/5,E7,4/5,B6,
1>4[8:1],,6,7,8<5[8:1],8,3,2,1,1,2/8,2/8,3/7,Cf,,,
4/6h[8:1],4h[8:1],6h[8:1],4h[8:1],6h[8:1],8h[8:1],6h[8:1],4h[8:1],7h[8:1],5h[4:3],,,,,,4h[8:1],
3h[8:1],5h[8:1],3h[8:1],5h[8:1],3h[8:1],1h[8:1],3h[8:1],5h[8:1],7h[4:1],,8v3[4:1]*v5[4:1],,,,,2h[8:1]/6,
6h[8:1],4h[8:1],6h[8:1],4h[8:1],6h[8:1],8h[8:1],6h[8:1],4h[8:1],7h[8:1],5h[4:3],4,,4,,4,4h[8:1],
3h[8:1],5h[8:1],3h[8:1],5h[8:1],3h[8:1],1h[8:1],3h[8:1],5h[8:1],7h[4:1],,1h[4:1],,Ch[2:11],,,,
{1},,{4}E7,E3,E7,E3,E7/D7,E3/D3,E7/D7,E3/D3,A7/A6/D7,A3/A2/D3,A7/A6/D7,A3/A2/D3,
{8}A8/A7/E8,A6/A5/E6,A1/A2/E2,A3/A4/E4,{16}8,1,8,1h[8:1],,8,{8},,2bx,,,
1/7,3,2/6,3,1/7,3,4/8,3,1/7,3h[8:1],5,3h[8:1],1,3h[8:1],5,3h[8:1],
7,4,2/5,4,3/7,2/8,3/7,5,1q5[8:1]/5h[4:1],,1,,8h[4:1],6,6,8,
8/2,6,7/3,6,8/2,6,5/1,6,8/2,6h[8:1],4,6h[8:1],8,6h[8:1],4,6h[8:1],
1q5[8:1],1,8h[4:1],,6h[8:1],8h[8:1],6h[8:1],8h[8:1],5>2[8:1],,8p4[8:1],,1h[4:1],,B2/B3/E3,B5/E6,
1b/7b,,2/6,3,1/7,3,4/8,3,1/7,3h[8:1],5,3h[8:1],1,3h[8:1],5,3h[8:1],
7,4,2/5,4,3/7,2/8,3/7,5,1q5[8:1]/5h[4:1],,1,,8h[4:1],6,6,8,
8/2,6,7/3,6,8/2,6,5/1,6,8/2,6h[8:1],4,6h[8:1],8,6h[8:1],4,6h[8:1],
1q5[8:1],1,8h[4:1],,6h[8:1],8h[8:1],6h[8:1],8h[8:1],5>2[8:1],,8p4[8:1],,1h[4:1],,B4/E4,B7/B6/E7,
{16}8b/2b,,3,4,3,,4,3,4h[16:3],,3,3h[16:3],,1,1,,1/7,,6,5,6,,5,6,5h[16:3],,6,6h[16:3],,8,8,,
1/7,,2,4,2,,5,4,5h[16:3],,3,3h[16:3],,1,1,,8/2,,7,5,7,,4,5,4h[16:3],,6,6h[16:3],,8,8,,
2/8,,3,4,3,5,4,5,3h[16:3],,4,4h[16:3],,1,1,,7/1,,6,5,6,4,5,4,6h[16:3],,5,5h[16:3],,8,8,,
3/7,,2,1,2,8,1,8,2h[16:3],,1,1h[16:3],,4,4,,6/2,,7,8,7,1,8,1,{8}7h[8:1],6h[8:1],5h[8:1],4h[8:1],
{4}5b,5,5,5/1h[4:1],5,5/4h[4:1],5,5/2h[4:1],5,5,5/3,5/1h[2:1],5,5,5,5/C,
4/5,4,4,4/8h[4:1],4,4/5h[4:1],4,4/7h[4:1],4,4,4/6,4/8h[2:1],4,4,4,4q5[3:2]/C,
{1},,,{4},,,{12},,E5,
