&title=爷们要战斗
&artist=雪十郎
&first=0.02
&des=CH3COOL
&lv_5=12+
&inote_5=(128)
{8},,,,,,,{48},,,,5h[48:230]/3h[48:166],,
{8},,,,,,,,
{8},,,,,,,,
{8},,,,,,,,
{8},,,,,,,,
{8},,,,,,,1b-5[8:27]/6b-4[8:4],
{8},,,,,,,,
{8},,,,,,,,
{8},,,,,,,,
{8},,,,,,,2bV85[8:12]/7b-3[8:4],
{8},,,,,,,,
{16}1,,,1,,,1x,1x,1x,,2,,3,,4,,
{8}5b,6,7,8,1,2,3,4,
{16}5x,6x,7x,8x,1x,2x,3x,4x,{32}5x,6x,7x,8x,1x,2x,3x,4x,5x,6x,7x,8x,1x,2x,3x,4x,
{16}5bx/1bx-4[8:1],,,,4,,5,,6-2[8:1],,7,,8,,7,,
{16}6/1-6[8:1],,,,2,,3,,4-8[8:1],,3,,2,,3,,
{16}3/7-2[8:1],,,,2,,3,,4-8[8:1],,5,,6,,5,,
{16}4/8-4[8:1],,,,5,,6,,7-3[8:1]/4,,8,,1,,8,,
{16}1-5[8:1]/4,,,,1<6[8:1]/7,,8,,1>4[16:3]/4,,2,,5x/1x,6x,7x,8x,
{16}1x-5[8:1]/5x,,,5,1-4[8:1],,2,,1<6[16:3]/4,,7,,1x/4x,3x,2x,1x,
{16}8x-3[8:1]/5x,,,4,8-5[8:1],,7,,8>3[16:3]/5,,2,,8x/5x,6x,7x,8x,
{16}1x-5[8:1]/4x,,,4,1>4[8:1],,2,,1<6[16:3]/6,,7,,1x/5x,4x,3x,2x,
{8}1bx/5x,1xh[8:5],5,,6,,7,1,
{8}8,4h[8:5],5,,6,,7,5,
{8}8h[8:4],1,,,2,7,1,6,
{16}2,,7,,1,,8,1,,,7,,8,7,,,
{8}1,1h[8:5],5,,6,,7,1,
{8}8,3h[8:5],7,,6,,5,2,
{8}4,5,6qq1[8:3]/4pp1[8:3],,6x/4x,,,,
{16}A1f,,A2f,,A3f,,A4f,,,,,,,,,,
{8}1,1,5,1,6,2,6,2,
{8}7,3,7,3,8,4,8,4,
{8}7,3,7,3,6,2,6pp6[4:1],2,
{16}6,,,,5,,4,5,,,6,,5,6,,,
{8}1b,1b,5,1,6,2,6,2,
{8}7,3,7,3,8,4,8,4,
{8}7-3[8:1],3,7xpp8[4:1]*qq6[4:1],,,,,,
{16}A1f,,A2f,,A3f,,A4f,,A5f,,,,,,,,
{8}2/Ch[4:3],,1,,8,,7q2[4:1],,
{8}2<4[4:1],,,,{32}A2,A1,A8,A7,A6,A5,A4,,,,,,,,,,
{8}7/Ch[4:3],,8,,1,,2p5[4:1],,
{8}5qq3[8:1]*pp7[8:1],,,,{32}A7,A8,A1,A2,A3,A4,A5,,,,,,,,,,
{8}3/1,,2/8,,1/7,{16},7,8,,7,,
{16}6/5,,,4,5,,3,,1/2,,,8,1,,1,,
{8}27,,36,,45,45,45,4-1[8:4]/5-8[8:4],
{8},,,,,,,,
{32}1bx/8bx,2bx/7bx,3bx/6bx,4bx/5bx,,,,,,,,,,,,,,,,,,,,,,,,,,,,,
{4}4-1[8:1],4b/5,4-1[8:1],4b/5,
{4}4-1[8:1],4bpp4[4:1]*qq4[4:1]/5,,,
{4}8qq8[4:1],,1pp1[4:1],,
{4}6V82[4:1],2V46[4:1],5V71[16:3],,
{4}4-1[8:1],4b/5,4-1[8:1],4b/5,
{4}4-1[8:1],4b-8[8:1]/5-3[8:1],,,
{4}8<5[4:1],5V31[4:1],1<5[4:1],{8}5>1[16:6],5p8[8:2],
{4},,,,
{4}4-1[8:1],4b/5-8[8:1],4-1[8:1]/5,4b/5,
{4}4-8[8:1],4b/5-3[8:1],{8}1,1-3[8:1],1-6[8:1],1-4[8:1],
{8}1-5[8:1],1-3[8:1],1<6[8:1],1>4[8:1],1qq7[8:1],1pp5[8:3],1,1,
{4},8x,7,6,
{4}4-2[8:1]/5-1[8:1],4b/5b,4-8[8:1]/5-7[8:1],4b/5b,
{4}4>2[8:1]/5p1[8:1],4bq5[4:1]/5b<4[4:1],,,
{8}3bV14[16:3]/5bV74[16:3],3b/5b,,,Cf,,1b>5[8:3],1bq6[4:1],
{4},,{8}7,8,1,2,
{8}3,,,,,,,,
||{8}3-5[8:1],,5,6-2[8:1],,1-3[8:1],,4-8[8:1],
||{8}5,6-4[8:1],,1,2,3,4,,
E
