&title=蝎虎天体 -Lacertid-
&artist=Daily天利
&first=-0.23000003
&des=重太
&lv_5=14
&inote_5=(220)
{1},
{6}6,6,4,3b-8-2[8:6]/5,,,
{8},,6,,6<1[4:2],,,,
{6},2,3,
{8}4h[4:2],,1,,1,
{16},,7>2[4:2],5,,,
{16},,6,,,,6,,,,6,,,,3-8[8:4],8,
{8},,,,,,,,6-1-7[8:4],,,,,,,,8qq4[4:2]*pp4[4:2],,,,,,,,53,,2-5[8:1],,8,,,,8h[4:1]/7x-5[8:1],,,,1,1,5,6,2,2,6,7,3,3,8,1,2x-8[8:1]/4h[4:1],,,,3,3,1,1,2,2,8,8,71,6,54,3,2h[8:2]/8x-6[8:1],,,,1-3[8:1],1,6,7,8-6[8:1],8,4,3,2-4[8:1],2,5,6,7h[8:2]/5x-3[8:1],,,,8,2,1,1,3,4,2,2,6,5,7-1-5[8:4],5,7,,4,,4h[8:1],,4-2-6[8:4],,4,,8,,8h[8:1],,8-6-1[8:4],,8,,2,,2h[8:1],,2-8-4[8:4],,2,4,4,,5,,6-8[8:1],,3,3,1,3,7,7,5,7,2,2,4,2,6,6,5,7,
{16}1,8,1,8,1,8,1,8,1,8,1,8,1,8,1,8,1b-5[8:1],,,,,,,,
{8}6,,7/5-2-4[8:2],,6,,,,65,,7,,42,,1,,8,,7qq7[4:1]/1pp1[4:1],,,,,,8,,7/5-1[8:1],,6b-8[8:1],,4b-2[8:1],,5b,,Cf,,2x-4[8:1],,6x-4[8:1],,3x-8[8:1],,5x-1[8:1],,2x-5[8:1],,8x,,7x-4[8:1],3x,7x/3x,,1x-5-3[8:2],5x,6x-8[8:1]/1x,6x,,,
{16}2,1,2,1,2x-4<5-1[4:2],,,,,,,,6,,6,,6,,,,
{8}8b-3[8:1],,5b-7[8:1],,4b-1[8:1],,8b,8,7b-4[8:1],,3b,,1b-5[8:1],5,1b,,6b-4-7[4:1],4,6b/3-1[8:1],,3b,,
{16}7,8,7,8,7b-5[8:1],,,,7b-1[8:1],,,,7b,,,,,,,,2xh[4:1]/4h[4:1],,,,,,,,1-4[8:1],,,,5,,5,,6h[4:1]/5xh[4:1],,,,,,,,7-4[8:1],,,,3,,3,,2,4,2,4,3,5,3,5,4,6,4,6,5-1-3[4:1],7,5,7,,,,,8-4[8:1],,,,8b,,,,,,,,4h[8:1]/2h[8:1],,,,2h[8:1]/4h[8:1],,,,
{8}3h[8:1]/5h[8:1],,3h[8:1]/5h[8:1],,6h[8:1]/4h[8:1],,6h[8:1]/4h[8:1],,7-5-1[8:2],5,75,,
{16}2,3,4,5,6,7,8,1,26,5,4,3,2,1,8,7,6-1[8:1],,,,2-6[8:1],,,,2,,,,,,,,1-4b[8:1]/8-5[8:1],,,,8b/1,,,,3,,4,,2,,2,,6,,5,,6,5,6,,4,,4,,7-5-1[8:2],,,,2-5[8:1],,,,2,,,,8b,,,,75,,75,,6,5,6,5,6,,3-5[8:1],,5v8[8:1],,3,,6,,,,7-5[8:1]/1-4[8:1],,,,7b/1b,,,,3x-5-2[8:2],,5,,3,,,,8,,8,,2,1,2,,7-4[8:1],,8,,7,,,,5<8[8:1]/1>4b[8:1],,,,51,,,,1-6b[8:1]/5-2[8:1],,,,15,,,,7x/3,,7/3x,,8,1,8,,2-5-2[4:1],,6,,2>6<8>4b[4:11],,,,A2f,,,,,,,,,,,,,,,,E3,,,,,,,,,,,,,,,,E7,,,,,,,,,,,,
{6},8-5[8:5],,
{8}4,4,4,,4,,
{4}6h[8:1]/5h[8:1],4h[8:1]/2h[8:1],7h[8:1]/8h[8:1],1h[8:1]/2h[8:1],7h[8:1]/5h[8:1],4h[8:1]/3h[8:1],8h[8:1]/2h[8:1],7h[8:1]/5h[8:1],
{16}3,4,3,,6,5,6,,8<5[8:1],,4,,84,,,,2,3,4,7,6,5,1,2,3,8,7,6,1,2,3,
{48}4q6[4:6],8q2b[4:6],,
{1},,
{48}8V64[4:6],4V28b[4:6],,,,,,,,,,,
{1},
{4},,,
{48}1>4[4:6],5<8b[4:6],,,,,,,,,,,
{1},
{4},,,
{48}8qq5[4:6],4qq1b[4:6],,,,,,,,,,,
{1},
{4},,,
{8}6,6,4,5,
{16}3,4,3,,,,5v7[4:1],,5,,,,,,1h[8:3],,,,8,,8,,7,,5,,,,6,,6h[4:2],,,,5,,4,,3,,6h[4:1],,,,5,,5h[8:4],,,,8,,7,,6,,5,,5,,6,,6,,4,5,4,,3v5[8:2],,,,6,,6,,,,7-1-6[16:7],,,,7,,5,,5,,5h[4:1],,,,6,,4h[8:3],,,,,,5,,5,,4,,3V52[16:6],,,,,,6h[4:2],,,,
{8},,1-5[8:4],,,6,6,6,6,,7-4[8:4],,,3,3,3,3,,2v5[4:2],,,6,6,6,6
,,54,,12,,54,,87,,6,6,4,4,5,5,3,3,7,8,6,6,1,8,2,2,
{16}8,1,8,1,7,2,7,2,6,3,6,3,5<8[8:1],4,5,4,5b>2[8:1],,,,5b-1[8:1],,,,5b/1xw5[8:1],,,,1bx,,,,7x-5[8:1],,,,1x-3[8:1],,,,8xv7[8:1],,,,,,,,64,,3,,12,,8,,5/7h[5:1],,,
{32}3b,E7,B6,B5,E5,,,,,,
{4}2-5[8:1],8b-4b[8:1]/2,1b-5[8:1]/8,7b-4b[8:1]/1,7/2b-5[8:1],6b-1b[8:1]/2,64,
{8}B2/B3/E3,B7/B6/E7,1bx>4[8:1],5bx,6bx-3b[8:1]/1bx,,2b-5[8:1],,8b<5b[8:1]*>3[8:1],,8b,,,,B6,B2,B8,B4,7b-4[8:1]/3-8b[8:1],62,73,,1bx>4[8:1]/5x,,7bp3b[8:1]/1,,1bq5[8:1]/7,,8b/1,,8bx<5b[8:1],4bx,3bx/8bx,,4-7[8:1]/8b-3b[8:1],1/5b,8b<5[8:1]/4>1b[8:1],,8bq4b[8:1]/4q8[8:1],,8b/4,,E7,,E3,,Ch[4:1],,,,
{16}2-4-8[8:3],1,2,,7,,,,7,,,,7,,6,5,6-1[8:1],,,,64,,,,2-5[8:1],,1,,2,,,,8p4[8:1],,,,83,,,,3,,5,,64,,3,4,3-8[8:1],,,,5/3,,,,7-5[8:1],,,,71,,,,3,4,3,,25,,,,
{8}1-3[8:1],1,7-4[8:1],7,2-5[8:1],2,8-6[8:1],8,1-4[8:1],1,7-5[8:1],7,3,3,5,5,
{32}1,2,3,4,5,6,7,8,1,,,,,,,,
{8}7b-4-6[8:2],4,7b,8bw4b[8:1],
{16}8,,Cf,,,,
{8},1>4[8:1],,71,,
{16}6,,75,,8,1,8,,2>5[8:1],,7,,2,,,,6,5,6,,7v4[8:1],,4,,7-1[8:1]/3,,,,73,,,,2,,2,,8,1,8,,2-5[8:1],,6,,2<8[8:1],,,,27,,,,6>4[8:1],,1,,6/2-5[8:1],,,,82,,,,8<5[8:1],,4,,8,,3,4,3,,25,,2>4[8:1]/5<7[8:1],,,,25,,,,8,,5,6,5-1[8:1],,,,54,,,,2-5[8:1],,1,,2,,,,8-6[8:1],,,,1-5[8:1],,,,2-4[8:1],,,,Cf,,,,6h[8:1]/5h[8:1],,,,6h[8:1]/5h[8:1],,,,7x<4[8:1],,7,,8,,1,,2x-5[8:1],,2,,1,,8,,6,5,6,,74,,74,,1h[8:1]/2h[8:1],,,,3h[8:1]/4h[8:1],,,,2x>5[8:1],,2,,1,,8,,7x-4[8:1],,7,,8,,1,,2h[8:1]/4h[8:1],,,,2h[8:1]/4h[8:1],,,,1-3[8:1],,5,,1-7[8:1],,5,,1
,,5,,1x,2x,3x,,8-6[8:1],,4,,8-2[8:1],,4,,8-6[8:1],,4,,8,,,,3,4,3,4,2,5,2,5,1,6,1,6,8,7,8,7,
{32}1,2,3,4,5,6,7,8,1,2,3,4,5,6,7,8,
{8}1x-5[8:1],5x-1[8:1],1x-3pp5v2-7b[8:7],,,,,,,,,,6-4-1[8:3]/4,6/4-6-1[4:1],,,,,
{32}8x,7,6,,,,,,Ch[8:1],,,,B8/B1/E1/B5/B4/E5,
{4}
E
