&title=Tempestissimo
&artist=t+pazolite
&first=0
&des_5=Wozzy
&lv_5=13+
&clock_count=4
&inote_5=(231)
{1}
,4qq1[2:3],,5pp8[2:3],,2pp5[2:3],,
{16}
A8,D8,A7,D7,A6,D6,A5,D5,A4,D4,A3,D3,A2,D2,A1,D1,
{1}
A8,
4p1[2:3]/5,,4/5q8[2:3],,1s5[2:3]/8,,E1f,,
{8}
5b/7b,1/8,2h[8:5]/4,,
{16}
E3,,,E1,,,E7,,,,6x,5,
{8}
6,7,8v3[8:1],1,8,,
{8}
4b/2b,8/1,7h[8:5]/5,,
{16}
E7,,,E1,,,E3,,6x,,3x,4,
{8}
3,2,1/8,7,1/8,2,
{4}
8x-5[8:1],1x-4[8:1]b,8x-4[8:1],1x-5[8:1]b,
8x-3[8:1],1x-6[8:1]b,7x-3[8:1],2x-6[8:1]b,
{8}
8x,8,7,7,6,6,5,5,
{16}
4,3,2,1,8,7,6,5,
{4}
4b/8b-4[12:1],Cf,
{8}
4bx/5xh[4:7],4x,4x,4x,4x,4x,4x,4x,4x,4x,4x,4x,4x,4x,4x,4x,
4xh[1:1]/5x,5x,5x,5x,5x,5x,5x,5x,5x,
{16}
4x,5x,4x,,5x,,
{4}
3-1[12:1]b/6-8[12:1],3/6,
{8}
1bx/8xh[4:7],1x,1x,1x,1x,1x,1x,1x,1x,1x,1x,1x,1x,1x,1x,1x,
5/7,6,2/4,3,5/7,6,2/4,3,4xh[8:1]/5xh[16:3],,3/6,2/7,
{4}
1-5[12:1]b/8-4[12:1],1/8,
3bx/5bx,1b/3b,
{16}
1b/7b,,,5b/7b,,,3b/5b,,
,,4,5,
{8}
4,5,E4,E8,E2,E6,
{4}
6bx/4bx,8b/6b,
{16}
8b/2b,,,4b/2b,,,6b/4b,,
,,5,4,
{8}
5,4,E6,E2,E8,E4,
7x,7,2/7,7,1/7,7,8h[8:1]/7h[16:3],,
2x,2,7/2,2,8/2,2,1h[8:1]/2h[16:3],,
7x,5,2,4,7,
{16}
3,4,2,,6,5,7,,1,8,1,,2/7,,
A1,A2,A3,A4,A8,A7,A6,A5,
{1}
4bx>5[8:13],,
{8}
8x,8-6[8:1],,8-2[8:1],,8-4[8:1],,8,,3,3,,2-4[8:1]/6-8[8:1],,2/6,,
1x,1-3[8:1],,1-7[8:1],,1-5[8:1],,1,,6,6,,3-8[8:1]/7-4[8:1],,3/7,,
5x,5-7[8:1],,5-3[8:1],,5-1[8:1],,5,,4,4,,2-5[8:1]/6-1[8:1],,2<3[1:2]/6,,
{1}
Cf,,7>6[4:7]b,,
{4}
1h[8:1],1h[8:1]/2h[8:1],8h[8:1],8h[8:1]/7h[8:1],
1h[8:1]/2h[8:1],3h[8:1]/4h[8:1],7h[8:1]/8h[8:1],5h[8:1]/6h[8:1],
{8}
1h[16:1],1h[16:1],8h[16:1],8h[16:1],2h[16:1],2h[16:1],7h[16:1],7h[16:1],
{16}
3,6,3,6,3,6,3,,
{4}
4x-8[8:1]b/5xs1[8:1],4b/5b,
{8}
2x/3x,,4h[4:1]/6,,8,7/5,4/6,3h[4:1]/5,,
{16}
6,5,
{8}
6,7,8-2[8:1]*-3[8:1],,8,,
7x/6x,,5h[4:1]/3,,1,2/4,5/3,6h[4:1]/4,,
{16}
3,4,
{8}
1bx-4[8:1]*-3[8:1],,1bx-6[8:1]*-7[8:1],,1bx,,
1b>4[8:1],,1/7,,5<8[8:1],4,3,2h[4:1],,1-5[8:1],8-6[8:1],1,8,,7/3,,
8x<5[8:1],,8/2,,4>1[8:1],5,6,7h[4:1],,4,3-7[2:1]b,2,
{2}
,
{8}
8b-6[8:1],,8/5,,8-5[8:1],4,8,3,8-4[8:1],2,8,1,8<5[8:1]*p4[8:1],,8,,
1-3[8:1],,1/4,,1-4[8:1],5,1,6,1-5[8:1],,1b-7[8:1]*-6[8:1],,1b-3[8:1]*-4[8:1],,1b,,
8b-6[8:1],,8/5,,8-5[8:1],4,8/3,,1-3[8:1],4,1,5,1-4[8:1],5,1/6,,
8x-5[8:1],6,8,4,1x-4[8:1]b,3,1,6,8,
{16}
1x,1x,1x>2>3<4<5<6<7>8[8:3],,2/8,,
{2}
,
{8}
4xh[16:1],4xh[16:1],4xh[16:1],4xh[16:1],3h[16:1],3h[16:1],3h[16:1],3h[16:1],
6h[8:1],,7h[8:1],,8x-4[8:1],,8x,,
5xh[16:1],5xh[16:1],5xh[16:1],5xh[16:1],6h[16:1],6h[16:1],6h[16:1],6h[16:1],
3h[8:1],,2h[8:1],,1,,C,,
2x/3x,,4h[4:1]/6,,8,7/5,4/6,3h[4:1]/5,,
{16}
6,5,
{8}
6,7,8q4[8:1],1>3[8:1],8,1,
6x,6,5,5,4,4,3,3,
{16}
5x,4,5,4,6,3,6,3,7,2,7,2,8q1[2:3],1,8,1,
{1}
,,
{32}
4b,3,2,1h[32:29],
{8}
,,,
{32}
5b,6,7,8h[32:13],
{8}
,,,
{32}
,2x/7x,3x/6x,4x/5x,
{8}
,4-1[8:1]/5-8[8:1],,4/5,,2xb/7xb,,
{8}
6-1[8:1],,5/6,4,3-8[8:1],,4/3,5,
{4}
7<1[8:3],3>5[8:3]b,7<5[8:1],3,
{16}
1x,2,3,4,1,8,7,6,8x,1,2,3,8,7,6,5,
{4}
4h[8:1],
{32}
D1
,A1,D2,A2,D3,A3,D4,A4,
{16}
8x-4[8:1]/D5,,,8x,,,1x,,
{8}
6x-8[8:1],5,6,4,6-1[8:1],5,6,3,
{4}
6>3[4:1],3>8[4:1],8V64[6:1]b,5,
{8}
3x-1[8:1],4x,3,5,3-8[8:1],4,3,6,
{4}
3v6[8:1],5,8V24[8:1]b*-3[8:1],8b,
{8}
5x/7,6,2/4,3,5/7,6,A1/B1f/E1/E2,,
3/4,2,5/6,7,1-5[8:1]b/8z4[8:1],,1/8,,
{16}
3x,6,3,6,3,6,3,6,2x,7,2,7,2,7,2,7,
{12}
1x,8x,1x,8x,1x,8x,
{6}
1bx,2b/4b,5b/7b,
{2}
1-5[6:1]b,1-5[6:1],1-5[6:1]b,1-5[6:1],
{16}
1x,2,3,4,5,6,7,8,1x/5x,4,3,2,1,8,7,6,3x,5,3,5,2,6,2,6,
{4}
8w4[8:1],8b/C,
{8}
2x-5[8:1],,1/2,8,7-4[8:1],,8/7,1,
{4}
3>5[8:3],7<1[8:3]b,3>1[8:1],8,
{16}
8x,7,6,5,8,1,2,3,1x,8,7,6,1,2,3,4,5h[8:1],,,,
{32}
D1,A8,D8,A7,D7,A6,D6,A5,
{16}
2x-6[8:1]/D5,,,2x,,,8x,,
{8}
7bx,1bx-6[8:1]/8bx-5[8:1],,1b/8b,,
{16}
4x,5x,4x,,5x,,
{8}
2-5[8:1],7-4[8:1],2,7,
{4}
1-5[8:1],B1f,
{8}
7bx,8bx-4[8:1]/2bx-5[8:1],,8b/2b,,
{16}
6x,3x,6x,,2x,,
{8}
1/8,7,1/8,2,
{4}
8-4[8:1]/1s5[8:1]b,1/8,
{8}
3bxh[4:1],4x,6h[4:1],5,3h[4:1],4,6h[4:1],5,
2bh[4:1],4,7h[4:1],5,1h[4:1],3,8h[4:1],6,
{16}
2b,3,4,5,6,7,8,1,2b/7b,6,5,4,3,2,1,8,
5b/7b,4,3,2,8b,7,6,5,1b,2,3,4,5bp3<7[4:7],6,7,8,
{1}
1bxp7>3[2:3]b/5bx,,
{8}
1-4[8:1],5-8[8:1],1,5-3[8:1]b,,5-7[8:1]b,,
5-1-5[4:1],,8,8,,7-3[8:1],,7,,
8-5[8:1],4-1[8:1],8,4<6[8:1]b,,4>2[8:1]b,,
4-8-4[4:1],,1,1,,2-6[8:1],,2,,
1-5[8:1],8-6[8:1],1,8>3[8:1]b,,8<5[8:1]b,,
8-4-8[4:1],,2,2,,1-5[8:1],,7>8>1>2>3<4<5<6[1:2],,
{1}
Cf,,2<1<8<7<6>5>4>3[8:13]b,,
{8}
1x/8x,3,1x/8x,6,1x/8x,3,1x/8x,6,2-5[8:1]b,1,2,8,7-4[8:1],8,7,1,
{16}
2x,4x,2x,4x,
{8}
1h[16:3]b,7x,
2bh[16:1]/6bxh[32:1],7bh[16:1]/3bxh[32:1],
4bh[16:1]/8bxh[32:1],1bh[16:1]/5bxh[32:1],
{1}
2bx-8-5-3[2:1]`6bx-4-1-7[2:1]b,
8x-2v7-1[2:3]b/E5h[2:3]/A4/A5/B4h[4:5]/B5h[4:7]/D5f,,
{32}
1b,2/8,3/7,4/6,5b-1[8:1],
E
