&title=Separate - Cerif
&artist=ポリスピカデリー/CerifUTAU
&first=-0.332
&des=leopard
&lv_5=14
&inote_5=(176){4},,,
{64}4x,5x,6x>8[8:8],,{16},,,
{8}7,7,7,7,7,7,7,7,
{8}7,7,7,7,7,7,7-4[8:1],7-2-5[4:1],
{8}7b,,6-8[8:1],6-1[8:1],,,,3<5[8:1]/8>2[8:1],
{8},3-8-6[4:1],,6,,4w8[8:1],,4<7-4[8:3],
{8},24,,5>2-5[8:3],,57,,4<8-5[8:3],
{8},14,,5>2-6[8:3],,58,7-1[8:1],7-4-1[4:1],
{8}7b,,5-7[8:1],5-8[8:1],,,,2>4[8:1]/5<7[8:1],
{8},5-1-3[4:1],,1,,6w2[8:1],,6<1-5[8:3],
{8},46,,3>8-4[8:3],,35,,5<7-3[8:3],
{8},25,,4>2-5[8:3],,1,8,7,
{8}6b,3-8[4:1],6,,6,,6,,
{8}6,2-6[8:3]*-7[8:3],6,,,,,,
{8}6,1-4[4:1],6,,6,,6,2,
{8}6,4,6,1,6>4[8:1],,6,1xh,
{8}3,7-4[4:1],3,,3,,3,,
{8}3,5-1[4:1],3,,3,,3,1,
{8}3,6,3,,83,,53,,
{8}34,5,63,7,8h[4:1]/3,,{16}2,1,2,1,
{16}2-5[16:3],,,5>3[8:1],,,7,,8>2[16:3],,,2-7[8:1],,,3,,
{16}5-2[16:3],,,2>4[8:1],,,7,,1<7[16:3],,,7-2[8:1],,,5,,
{16}3-5-7-1[8:3],,,3,,,,,{2}4x<2[8:3],
{16}5-7-1-3b[8:3],,,5,,,,,{2}6x<4b[8:3],
{16}7<5[16:3],,,5-8[8:1],,,3,,2<8[16:3],,,8-3[8:1],,,7,,
{16}5-8[16:3],,,8<6[8:1],,,3,,1>3[16:3],,,3-8[8:1],,,5,,
{16}7v4-8[8:3],,,7,,,,,{2}6x<3[8:3],
{16}5v2-6b[8:3],,,5,,,,,{2}4x<1b[8:3],
{8}5,5>1[2:3],5,5,5,5,5,5,
{8}6,6,6,6,6,6,6,6,
{8}45,45,45,45,45,45,45,45,
{8}67,67,67,67,67,67,3x/8x,,
{8}1/5x,5,7/2,7x,4/8,4x,3/6,3,
{8}4/7,7,2/8,8x,1/6,1x,3/5,3x,
{8}48,37,26,15,48,37,26,1b/5b,
{8},E7,C,E3,,E7,C,E3,
{4}7bp7[16:3],3pp3[16:3],3q3[16:3],7qq7[16:3],
{4}7pp7[16:3],3pp3[16:3],3qq3[16:3],7qq7[16:3],
{4}7pp7[16:3],3p3[16:3],3qq3[16:3],7q7[16:3],
{4}7pp7[16:3],3pp3[16:3],3qq3[16:3],7,
{4}1bq1[16:3],5qq5[16:3],5p5[16:3],1pp1[16:3],
{4}1qq1[16:3],5qq5[16:3],5pp5[16:3],1pp1[16:3],
{4}1qq1[16:3],5q5[16:3],5pp5[16:3],1p1[16:3],
{8}1qq1[16:3],,,5,,{16}2,4,3,,6,,
{8}8,8,8,8,{32}8b,17,26,35,{8}4w8b[8:1],,4b,
{8},2b/6b,,3,4-2<1-5[4:1],,7,6,
{8}4-6<7-3[4:1],,,2,4-2<1-5[4:1],,7,6,
{8}4-8[8:1],4,,2x,,34,45,56,
{8}6b/7b,67,67,67,67,67,67,67,
{4}6b/7b,2b/3b,{32}1b/2b-6[8:17]*-5[8:11],38,47,56,{8},2,,
{1},{4},,,3-8b[32:3],
{8}3b,,7<5[8:1],7-3[8:1],,,,1>3[8:1]/4-7[8:1],
{8},4qq5[16:5],,1p8[16:5],,1-6[8:1],,1>4-1[8:3],
{8},71,,1<6-2[8:3],,13,,8>4-7[8:3],
{8},58,,1<6-2[8:3],,14,3,2,
{8}1b,1,4-1[8:1],4-7[8:1],,,,8<6[8:1]/5-2[8:1],
{8},5pp4[16:5],,8q1[16:5],,8-3[8:1],,8<5-8[8:3],
{8},28,,8>3-7[8:3],,86,,1<5-2[8:3],
{8},41,,8>3-7[8:3],,85,6,7,
{8}8b,6-2[8:1],8-5[8:1],6,8-3[8:1],,8,,
{8}8,1-6[8:1],8-5[8:1],1,8-3[8:1],,8,,
{8}8,4-7[8:1],8-5[8:1],4,8-3[8:1],2-5[8:1],8,2,
{8}8,3-7[8:1],8-5[8:1],3,8-3[8:1],,8,,
{8}1,3-7[8:1],1-4[8:1],3,1-6[8:1],,1,,
{8}1,8-3[8:1],1-4[8:1],8,1-6[8:1],,1,,
{8}1,5-2[8:1],1-4[8:1],5,1-6[8:1],8-4[8:1],1,8,
{8}1,6-2[8:1],1-4[8:1],6,1,,7b/8b,{16}3,4,
{16}2<7[16:3],,,7-3[8:1],2,,5,,6>4[16:3],,,4-7[8:1],6,,3,,
{16}3>1[16:3],,,1-6[8:1],3,,7,,5-3[16:3],,,3>8[8:1],5,,1,,
{16}4-7-2-5[8:3],,,4,,,,,{2}6x-3-8-5[8:3],
{16}2-7-4-1b[8:3],,,2,,,,,{2}8x-3-6-1b[8:3],
{16}2>5[16:3],,,5-1[8:1],2,,7,,6<8[16:3],,,8-5[8:1],6,,1,,
{16}1>3[16:3],,,3-7[8:1],1,,4,,5<7[16:3],,,7-4[8:1],5,,1,,
{16}2-5-8-2[8:3],,,2,,,,,{2}4xv1v6[8:3],
{16}8-3-5-8b[8:3],,,8,,,,,{2}1v7b[16:3],
{2}2>5[4:3],4<7[4:3],6<1[4:3],8>3[4:3],
{2}2>5[4:3],4<7[4:3],6<1[4:3],C,
{8}3bx<7[3:1],,6<2[3:1],,1>5[3:1],,4<8[3:1],,
{8}7>3[3:1],,2>6[3:1],,5<1[3:1],,1,,
{8}4,5,78,12,34,56,34,1b/2b,
{8},6,7,8,{24}8/3b,4,5,8,,,8/3b,4,5,8,,,
{4}7bp7[16:3],4pp4[16:3],4q4[16:3],1qq1[16:3],
{4}1pp1[16:3],6pp6[16:3],6qq6[16:3],3qq3[16:3],
{4}3pp3[16:3],8p8[16:3],8qq8[16:3],5q5[16:3],
{4}5pp5[16:3],2pp2[16:3],2qq2[16:3],7,
{4}5bq5[16:3],8qq8[16:3],8p8[16:3],3pp3[16:3],
{4}3qq3[16:3],6qq6[16:3],6pp6[16:3],1pp1[16:3],
{4}1qq1[16:3],4q4[16:3],4pp4[16:3],8,
{16}2,8,1,7,8,6,3,1,2,8,1,7,4,6,3,5,
{8}1,1,1,1,{32}1b,28,37,46,{8}5w1b[8:1],,5b,
{8},3b/7b,,6,6pp5b[4:1],,1,3,
{8}4qq5b[4:1],,,8,6pp5b[4:1],,1,2,
{8}4>6[4:1],4,,5x,,1,8,7,
{8}56,45,34,23,23,23,23,23,
{8}2b/3b,,6b/7b,,{32}7b-4[8:11]*-3[8:17]/8b,16,25,34,,,,,{4}7,
{1},,
{2}7-1-3[8:5],1-7-5[8:5],7-1-3[8:5],1-7-5[8:5],
{2}3-5-7[8:5],5-3-1[8:5],3-5-7[8:5],5-3-1[8:5],
{2}7-3-8[2:3],Ch[1:1],,{4},6b,
{16}4,5,4,5,4,5,4,5,4,5,4,5,4,5,4,5,
{24}2b,4,3,{16}5,4,5,4,{24}7b,5,6,
{16}4,5,4,5,{24}2b,4,3,{16}5,4,
{16}5,4,5,4,5,4,5,4,5,4,5,4,5,4,5,4,
{24}7b,5,6,{16}4,5,4,5,{24}2b,4,3,
{16}5,4,5,4,{24}7b,5,6,{16}4,5,
{8}3,2,56,1,34,8,46,2,
{16}35,,7,8,7,,24,,1,8,1,,7,5,6,4,
{8}8bh[8:3],,,{24}2,3,4,5,6,7,8,1,2,{8}3b/A7f/B7/E7/E8,,
{8},78,,,23,,{48}5w1b[8:7]/A3,D4,A4,D5,A5,D6,A6,D7,A7,D8,A8,D1,
{1}A1f,
{1}5xqq5[8:13]`6xpp5[8:13],,
{4}4bpp5b[4:1],5q5b[4:1],7<3[8:1],2<8[8:1],
{4}2qq3b[4:1],3pp3b[4:1],6-1[8:1],8<6[8:1],
{4}8pp1b[4:1],1qq1b[4:1],4v3[8:1],6>4[8:1],
{4}6qq7b[4:1],7pp7b[4:1],2-5[8:1],4>1[8:1],
{4}4p5b[4:1],5qq5b[4:1],6-8[8:1],2<8[8:1],
{4}2q3b[4:1],3pp3b[4:1],1<4[4:1],,
{8}8,8,8,8,{32}8b,17,26,35,4bw8b[8:1],,,,{8},4b,
{8},2b/6b,,7,5pp4[8:3],,2,3,
{8}4pp3[8:3],,,1,3pp2[8:3],,1,8-3b[8:1],
{8},8bx,,2x,64,1,35,7,
{8}5b/6b,56,34,34,12,12,78,78,
{4}6<1[8:1]/5>2[8:1],5/6-2b[8:1],4-8b[8:1]/6,64,
{32}7b,6,5,4,3,2,1,8,7,6,5,4,3,2,1,8,
{32}7,6,5,4,3,2,1,8,7,6,5,4,3,2,1,8,
{32}7,6,5,4,3,2,1,8,7,6,5,4,{8}1b/3bqq3[4:1],,3<8[4:1],B2f/B1/E2,,
{8}1,2,3,4,{16}7,6,5,4,{32}1,8,7,6,5,4,3,2,
{8}1b/5b,,{32}1b-6[8:1]/5b-2[8:1],2b/6b,3b/7b,4b/8b,,,,
{128},,,5p3[16:27],{2}1p7b[16:27],
{1},{4},,,2-6[32:3],{32}2b/A8f,B8,C,B4,A4,,,,{2},E
