&title=lastendconductor
&artist=CODE ZTS LABEL
&first=1.75
&des=p
&lv_6=13+
&inote_6=(139)
{8}
4h[12:24]/5h[12:24],,,,,,,,,,,,,,,,,,,,,,,,
18,2,3b/5b,
{16}
6,4,7v4[12:1],5,6,,4V61[12:3],,3,,2h[12:3],,,,,,3,,47,,6,,5/3V58[12:3],,2,,1h[12:3],,,,,,2,,31,,
{24}
4,5,4,
{16}
6,,7,,2pp4[16:2],,4>8[16:3],,5h[12:3],,,,,,6,,7qq4[16:5],,8,,1h[12:3],,,,,,2,,38,,
{24}7,6,5,
{16}
4,,3,,2h[12:3]/8h[12:3],,,,,,6,5,7-1[12:1],,8,,4-2[12:1],,3,,8h[12:3],,,,1h[12:3],,,,5v8[12:1],,6,,2>4[12:1],,1,,6pp1[12:4],,7,,5h[12:3],,,,,,4,3,2-8[12:1],,8,,6h[12:3],,,,3h[12:3],,7,6,5-7[12:1],,2,,4V68[12:3],,3,,2h[12:3],,,,,,3,,47,,6,,5/3V57[12:3],,2,,1h[12:3],,,,,,2,,38,,
{24}
4,5,4,
{16}
6,,7,,8V64[12:3],,1,,4v7[16:2],,,,,,3,,2V46[12:3],,1,,5,,,,,,7,,18,,
{24}
2,3,4,{16}5,,6,,1h[12:3]/7h[12:3],,,,,,3,5,2-8[12:1],,1,,7-5[12:1],,6,,1h[12:3],,,,8h[12:3],,,,4v1[12:1],,3,,7<5[12:1],,6,,3qq7[12:4],,2,,4h[12:3],,,,,,4,5,6,,1,,8-6[12:1],,,,{24}5,,,,4,3,{16}2-8[12:1],,,,4w8[12:1],,,,4b,,,,,,6,,57,,8,,12,,3,,
5-7[12:1]/4-8[12:1],,,,{24}4/5,,,,,1,5-1[12:1],,,,,,4-2[12:1]/5,,,,,8<5[12:1],4,,,,,,,,,{16}3,4,2,,1,,78,,6,,4-2[12:1]/5-1[12:1],,,,{24}5/4,,,,,8,4-8[12:1],,,,,,5-7[12:1]/4,,,,,,{16}3/5V37[12:3],,,,,,8,,8,,6,,54,,3,,1-5[12:1]/2-4[12:1],,,,{24}12,,,,,6,8-4[12:1],,,,,,{16}7-5[12:1]/8,,,,1/7V13[12:3],,,,,,4,,5V71[12:3],,,,,,4,3,2h[12:3],,3,,4,,53,,7h[12:3],,6,,5p4[12:3],,46,,35,,,,,,2,,1,,78,,6,,54,,3-1[12:1]/4-8[12:1],,,,{24}3/4-6[12:1],,,,,2,{16}4-8[12:1],,,,3-1[12:1]/4,,,,3V58[12:3]/7,,,,,,8,,1V35[12:3],,,,,,8<5[12:1],,{24}7,,,4,3,2,1,,,{16}4,,8-4[12:1],,7-5[12:1],,8,,7,,3>6[12:3],,2,,1h[12:3]/3b,,,,,,
{24}5,2,4,{16}3p2[12:3],,2,,1,,,,8,,7,,56,,34,,{24}28,,,1,7,1,{16}6qq1[12:4],,,,2b,,,,,,,,5qq1[12:5]*qq1[12:5],,,,1b,,,,,,,,2,,3,,4,,5,,6h[12:12],,7>5[12:9],,,,,,,,,,,,,,,,,,7p6[12:4],,,,4,,3,,2,,1,,8h[16:8],,7,,6p8[12:4],,,,,,,,,,6,,5p8[16:4],,4,,3,,2,,,,7,,6,,5,,4h[12:12],,3>5[12:9],,,,,,,,,,,,,,,,,,3pp1[12:4],,,,1,,8,,7,,6,,5-7[12:1],,,,3-5[12:1],,,,8<5[12:2],,7,,1p8[12:4],,2,,,,,,,,,,7,,6,,5,,43,,2h[16:18],,1b-3[12:1],,,,1,,,,8-4[12:1],,,,8,,,,7-5[12:1],,4,,7,,3,,24,,6,,78,,1h[16:8],,2,,3q1[12:4],,,,,,,,,,3,,4q1[16:4],,5,,6,,7,,,,2,,3,,46,,7h[16:18],,8-6[12:1],,,,8,,,,1-5[12:1],,,,1,,,,2-4[12:1],,6,,2,,5,,6,,75,,8,,1-3[12:1],,,,7-1[12:1],,,,4>1[12:2],,3,,6,,5p4[12:4],,,,,,,,1bp1[12:3]*p1[12:3],,,,,,,,,,6,,
7-5[12:1],,,,8-4[12:1],,,,1-3[12:1],,,,6-4[12:1],,,,3-7[12:1],,,,2-4[12:1],,,,1-5[12:1],,,,8-6[12:1],,,,3-5[12:1],,,,6-2[12:1],,,,7-5[12:1],,,,8-4[12:1],,,,1-3[12:1],,,,6-8[12:1],,,,4-6[12:1],,,,2-4[12:1],,,,
7-5[12:1],,,,8-4[12:1]/7,,,,1-3[12:1]/8,,,,6-4[12:1]/1,,,,3-7[12:1]/6,,,,2-4[12:1]/3,,,,1-5[12:1]/2,,,,8-6[12:1]/1,,,,3-5[12:1]/8,,,,6-2[12:1]/3,,,,7-5[12:1]/6,,,,8-4[12:1]/7,,,,1-3[12:1]/8,,,,6-8[12:1]/1,,,,4-6[12:1],,3,,2-4[12:1],,,,
7-5[12:1],,7,,8-4[12:1],,8,,1-3[12:1],,1,,6-4[12:1],,6,,3-7[12:1],,3,,2-4[12:1],,2,,1-5[12:1],,1,,8-6[12:1],,8,,3-5[12:1],,3,,6-2[12:1],,6,,7-5[12:1],,7,,8-4[12:1],,8,,1-3[12:1],,1,,6-8[12:1],,6,,4-6[12:1],,3,,2-4[12:1],,1,,
7-5[12:1],,6,,8-4[12:1],,2,,1-3[12:1],,1,,6-4[12:1],,7,,3-7[12:1],,1,,2-4[12:1],,2,,1-5[12:1],,8,,8-6[12:1],,7,,3-5[12:1],,2,,6-2[12:1],,8,,7-5[12:1],,7,,8-4[12:1],,2,,1-3[12:1],,1,,6-8[12:1],,7,,4-6[12:1],,3,,2-4[12:1],,1,,8,,7-2[12:1],,6,,4-7[12:1],,3,,1-4[12:1],,8,,6bV42[16:6]*v1[16:3],,,,6b,,,,,,,,1h[16:2],,,,
{16}
6,5,7h[64:1],4,5,3,1h[64:1],2,8,3,6h[64:1],8,7,1,4h[64:1],2,8,3,6h[64:1],5,
7,4,1h[64:1],3,8,1,6h[64:1],8,7,1,4h[64:1],2,8,1,6h[64:1],5,7,7,4h[64:1],5,
3,4,1h[64:1],5,3,6,8h[64:1],7,1,5,3h[64:1],1,2,8,5h[64:1],6,4,5,3h[64:1],4,2,8,
8h[16:2],,
3,4,2h[64:1],5,4,6,8h[64:1],7,1,6,3h[64:1],1,2,8,5h[64:1],7,1,6,3h[64:1],4,
2,5,8h[64:1],6,1,8,3h[64:1],1,2,8,5h[64:1],7,1,8,3h[64:1],4,2,2,5h[64:1],4,
6,5,8h[64:1],4,6,3,1h[64:1],2,8,4,6h[64:1],8,7,1,4h[64:1],3,5,4,6h[64:1],5,7,1,
1h[16:2],,
6<1[12:1],,,,{32}2b,3,4,5,6,7,8,1,2b,3,4,5,6,7,8,1,
{24}2b,3,4,6,7,8,
{16}1<5[16:1],
,,,{32}5b,4,3,2,1,8,7,6,5b,4,3,2,1,8,7,6,
{24}5b,4,3,1,8,7,
{16}6v3[16:1],,,,
{24}
8b,1,2,4,5,6,1b,2,3,5,6,7,2b,3,4,6,7,8,
5h[16:4],,,,,,
1b,8,7,4,3,2,8b,7,6,3,2,1,7b,6,5,2,1,8,
4h[16:4],,,,,,
{32}2b,3,4,5,6,7,8,1,3b,4,5,6,7,8,1,2,4b,5,6,7,8,1,{16}2,5h[16:4],,,,
{32}7b,6,5,4,3,2,1,8,6b,5,4,3,2,1,8,7,5b,4,3,2,1,8,{16}7,4h[16:4],,,,
{32}2b,3,4,5,6,7,8,1,7b/2b,6,5,4,3,2,1,8,7b/3b,4,5,6,7,8,1,2,
3b/4bw8[16:3],,,,,,,,,,,,,,,,,,,,
{16}
56,,38,,47,,3,4,2V46[16:3],,1,,5,,7,,8v5[12:1],,1,,28,,3,6,4-2[12:1],,7,,4b/8-6[12:1],,,,1-5[12:1]/8b,,,,5bp4[12:5]*<4[12:5],,,,,,,,,,,,,,6,5,8-4[12:1],,8,,1-3[12:1],,1,,7-5[12:1],,7,,4,,3p2[12:6],,2<3[16:6],,,,,,,,,,,,,,8,1,7,8,6,4,5-7[12:1],3,4,,
1-3[12:1]/5b,,2,,1b/8-4[12:1],,7,,4b-8[12:1]*-8[12:1],,,,3-1[12:1],,,,5-7[12:1],,,,2-4[12:1],,2,,1-5[12:1],,1,,8V64[16:3],,8,,4,,,,3,,21,,87,,6,5,7V53[16:3],,8,,47,,2,,1v4[12:1],,8,,71,,6,3,5-7[12:1],,4,,1b-3[12:1],,2,,8b-4[12:1],,7,,1b-5[12:1],,2,,6-8[12:1],,7,,2-4[12:1],,3,,1-5[12:1],,8,,3-1[12:1],,2,,7-5[12:1],,6,,8bz4[12:3],,1,,4b,,6b,,8b,,13,,,6,57,,4,4,35,,5,5,64,,3,3,42,,6,6,5,5,
8b-6[12:1],,7,,1b-5[12:1],,2,,4bV28[16:6]*V68[16:6],,,,,,,,,,,,,,4w8[12:1],,,,4,,,,
{32}6,5,4,3,2,{24}1,8,7,{16}6,5,{12}4,3,2>7[12:13],1p8[12:12],8b,
