&title=电波妄想美少女Q
&artist=KOTOKO
&first=-0.049
&des=TTTTTtttttccccc!!!!!
&lv_5=13
&des_5=TTTTTtttttccccc!!!!!
&inote_5=
(180){4},{32},,,Ch[32:61],{1},,{8}E1,
,E7/E3,,E8/E4,
,E6/E2,,8x/7x,5x/6x,4x/3x,2x/1x,8bxh[8:3]/Cf,
,,,2x>5[8:1],,2/1v6[8:1],,1/4,
{4}4-2[8:1],4/6v1[8:1],{8}6/2,2V46[8:1],2,8<6v1[8:1],
,,,E8/B7/B6/E6/B5f,,B8f/B7/B6/B5/B4/B3/B2/B1f,,E8/B7/B6/B5/B4/B3/B2/E5f/E2,
,E8/B8/B1/E2/B7/B6/E6/B5/B4/Cf/E4,,1bx/8bx,8bx/1bx,7bx/1bx,8bx/2bx,8bx-5[8:1]/1bx-4[8:1],
,8/1,,7x<4[8:1],,7/8v3[8:1],,8/5,
{4}5-7[8:1],5/3>8[8:1],{8}3/7,7V53[8:1],7,1h[8:1],
,,,1bx/B7/E7/B6/B5/E6f,{16},7bx/E2/B2/B3f/E3,,,,,{8}4bx/B6/B7f/B8/E8/E7,
{16},6bx/B3/B2f/E3/E2,,,,,{8}7,7,2>2-4-6-8-2b[2:1],2,{32}A2,A3,A4,A5,
A6,A7,A8,A1,A2,A3,A4,A5,A6,A7,A8,A1,{8}A2f,,,,,,,,,,,,,,,,7b,
,8/6,7,3,
4/2,3/5,4,6,5/3,2,3/5,7,
6/4,3,7/2,8/1-6[8:1],,1h[8:1],,1/8-3[8:1],
,8h[8:1],,8/1-5[8:1],,1h[8:1],,1/8-4[8:1],
,8h[8:1],,2b,2,5/3,{4}4h[4:1],
{8}6,7/5,6,5/3,6,5/3,2,6/4,
7,6/4,3,6V82[8:1],,,,3V17[8:1],
,,,5<2[4:1],,2-7[8:1],,,,,,7bx/1b,
6/2,7b/1bx-4[8:1]*>4[8:1],2/6,1<6[8:1]*-6[8:1],
,1,,2b/8bx<5[8:1]*>3[8:1],7/3,8w4[16:3]*w4[16:3],,8,
,C,,2bx/8b,3/7,2b/8bx-5[8:1]*<5[8:1],7/3,8>3[8:1]*-3[8:1],
,8,,7b/1bx>4[8:1]*<6[8:1],2/6,1w5[16:3]*w5[16:3],,1,
,,,8,7,2,{4}6/1-5[8:1],
7-3V16[8:3],7,{8}5,4x,3,3-7b[8:1],
,3b,,,7/8b,6b/2,,3b/4,
{4}5b/2,8h[4:1]/Cf,{8}2bx,3bx/7bx,{4}6bx/4bxV27[4:1],
{8},,,8bx-6[8:1],,8bx-5[8:1]/1bx-4[8:1],,8bx-6-4[8:1]/1bx-3-5[8:1],
,8bxv5[8:1]/1bxv4[8:1],,8bx<5[8:1]/1bx>4[8:1],,1bxs5[8:1]/8bx-4[8:1],,8bx/1bx,
,8bxz4[8:1]/1bxs5[8:1],8bx/1bx,8bx<6[8:1]/1bx>3[8:1],,8bx/1bx-5[4:1],,1bx/5bxs1[4:1],
,1bxq5[4:1],,5bxq1[4:1],,1bx>4[4:1],,5bx,
,6b,6b,6bx/4bx-8[8:1],,4bx/5bx-1[8:1],,5bx/3bx-7[8:1],
,3bx/6bx-2[8:1],,6bx/5bx-1[8:1],,5bx/7bx-3[8:1],,7bx/2bx-6[8:1],
,2bx/8b-4[8:1],8b,8bx/5bx-1[8:1],,5bx/7bx-4[8:1],,7bx/3bx-8[8:1],
,3bx,,7bx,4bx/5bx,3bx,2bx/1bx,7bx/Cf,
,,{4}6,{8}5,4,6,5h[2:1],
,4,,4h[8:3],,3,{4}3h[2:1],
,4,{8}5/6,4h[8:11],,7,
,6,,5,,3>5[8:3],{4}3,
{8},,,3-8[8:1],,3/7-4[8:1],,7/1,
2,3/6,4/7,8,2<3[8:3],1,,,,C,
,6/5,7,6/5,4,5/4,
6<8-5[4:1],4/5,{4}3/6,{8}3,2/4-7[8:1],3,4/2h[4:1],
,,,1-4[8:1],,1/5-8[8:1],,5,
1,2,{4}3/7h[4:1],{8}4-6[8:1],3,{4}4/2h[2:1],
C,6,{8}4,6,{4}5,
{1}2p8[4:3]/6p4b[4:3],
{8},,,6-1[8:1],,6/2-5[8:1],,2/8,
7,6/3,5/2,1,7>6[8:3],8,,,,C,
,3/4,2,3/4,5,4/5,
3>1-4[4:1],5/4,{4}6/3,{8}6,7/5-2[8:1],6,5/7h[4:1],
,,,1-5[8:1],,1/4-8[8:1],,4,
,3,{4}6/2h[8:1],3/7h[8:1],8/4h[8:1],
{8},,7,4bx/6bx,6bx/4bx,,,5bx/3bx,
{2}3bx/5bx,{8}8bx/2bx,3bx/7bx,8bx/2bx,1bx/7bx,
,,{4}B8,,B3/B4,
,B6/B5,{8},Ch[4:1],,E8f,
,,,7-4[8:1],{16}8,1,{8}7/2>6[4:1],,2/6<2[4:1],
,2-5[16:3],,6,,7,,4,
{16}8-5-3[8:3],1,{8}8,3,3-7[4:1],,1,,2,
{16}2,8,,8,{8}1,2,2,3,3,4h[8:1],
5h[8:1],6-1[8:1],7,6,{16}3x,3x,,,{8}8-5-2[4:1],2,
{2}2-6[16:3],{8}3,7,4,{16}8,3,
8,2,1,3,8,2h[4:1],{8}Cf,{16},4h[2:1],,,,,{8}Cf,
{16},5h[16:5],,,,,6,5,7,4,6,5,7,4,{8}6b,
6b,4b,3b,{16}D8,D7,{8}D6,{16}A8,A7,{8}A6,{16}D1,D8,
{8}D7,{16}A1,A8,{8}A7,{16}6x,5x,{8}4x,{16}7x,6x,{8}5x,{16}8x,7x,
{8}6x,{16}1x,8x,{8}7x,{16}8,7,{8}6,{16}7,6,{8}5,{16}6,5,
{8}4,{16}D1,D2,{8}D3,{16}1x,2x,{8}3x,{16}D2,D3,{8}D4,{16}2,3,
{8}4,{16}D3,D4,{8}D5,{16}7x,5x,{8}6x,{16}2,4,{8}3,{16}7,5,
{8}6,{16}2,2,{8}4,{16}7,7,{8}5,{16}3,4,{8}2,{16}6,5,
{8}7,{16}3,4,{8}2,8xh[4:1],,7h[4:1],,1bxh[4:1],
,2bh[4:1],,,,B7/B6/B2/B3/Ch[2:1],,,,,,Cf/A3/A5/A6/A7/A8/A1/D2/D3/D4/D5/D6/D7/D8/D1/A2/B1/B2/E3/B3/E4/B4/E5/B5/E6/B6/E7/B7/E8/B8/E1/E2/A4,
E
