&title=Supernova
&artist=雄之助×春野
&first=0
&des=人
&lv_5=13
&inote_5=(105){1},,
{24}3h[24:5],,,,,4,3,,,,,,34,,,,,65,,,7,5,,5,
{24}6,,6,5,,,7,,,1,,,3-5[12:1],,,,,,C,,,,,,
{24}6h[24:5],,,,,5,6,,,,,,56,,,,,3
4,,,2,4,,4,
{24}3,,3,4,,,2,,,8,,,6-8[12:1],,,,,,1-5[8:1]/6,,,2,,8,
{24}1b,,,6,,,6/5<7[12:1],,,4,,4,5,,,2h[8:1],,,1,,3,4,,,
{24}25,,,3,,,3/4>2[12:1],,,5,,5,4,,,7h[8:1],,,8,,6,5,,,
{24}36,,,25,,,3v5[8:1]/6v4[8:1],,,47,,,36,,,,,,2,,2,4h[24:3],,,
{24}3,,,25,,,36,,,47,,,{48}5/8,E8,B7,B6,E6,,{24},,,1-5[12:1],,7,8,,2>4q6<8[24:25],
{24}1,,,,,,,,,,,,,,,,,,,,,,,,
{24}8>2q3<5[4:3],,,,,,,,,,,,,,,,,,,,,,,,
{24}8-6>5-1[4:2],,,,,,B7,,,,,,C,,,,,,B3,,,,,,
{24}4-2<1-5[4:2],,,,,,B3,,,,,,C,,,,,,B7,,,,,,
{24}8h[4:4],,,,,,,,,6>7[8:3],,,,,,,,,,,,,,,
{24},,,6>7[8:3],,,6h[24:18],,,,,,,,,,,,,,,,,,
{24}7>6[8:4],,,,,,E5,,,,,,E3,,,,,,E1,,,,,,
{24}8h[128:1],,,,,,1h[128:1],,,,,,8h[128:1],,2,1,,7,8,,2,1,,,
{24}2>4[12:1]/5<7[12:1],,,,,,2/5p3[4:1],,,,,,65,,,,,,8<5[12:1],,,1,,1,
{24},,3h[6:1],,,,4,,5h[24:3]/2,,,8<6[12:1],,,6,4>2[12:1],,8,2,,,,,,
{24}6,,3,4,,6,5,,2,4,,7,5>4-2<1[8:1],,5,,,,85,,,6h[24:3],,,
{24}8,,8,6,,6,4<8[8:1],,4,,,,4b/2>4[12:1],,,1,,,2b/1pp6[4:1],,,8,,,
{24},,,,,,E4/B3/E3f,,,5,,5,4<7[12:1],,,53,,,24,,,1,,1,
{24}8-3[12:1],,,7,,,6-1[12:1],,,5,,,4-7[12:1],,,3,,,2,,,1,,,
{24}8,,8,2>5[12:1],,2,4,,,2,,,6,,6h[8:1],,,5,7,,,82,,,
{24}3,,3,5,,5,7,,7,5,,5,3,,3,1,,1,7,,7,5,,,
{24}3<5[12:1]/7<5[12:1],,,,,,7-3[8:1]/3,,,,,,7/1w5[8:1],,,,,,1,,,,,,
{24}2h[8:1]/4,,,B6,,,5w1[8:1]/7h[8:1],,,B3,,,5,,,,,,1>6[24:4],,7,8,,6,
{24}1,,,,,,E8f/B7/B8/A7/A8,,,,,2h[8:1],,,4q8[8:1],3,,15,,,24,,,3h[24:3],
{24},,8,,,6,5,,5,7h[12:1],,8,,,1/8,,,2,1w5[8:1],,3,4,,,
{24}1,,,,,,7h[8:1],,,4,,5,2h[8:1],,,4-8[12:1],,5/7,,,1,,,,
{24}2,,2,8,,7,1,,2,8,,7,1,2,3,7,6,5,2,3,4,6,7,8,
{24}1x/B5/B4/E5f,,,,,,E7/E3,,,,,,2>4[12:1]/7<5[12:1],,1,8,,,,,,,,,
{24}45,,,34,,,45,,,56,,,4-2[12:1]/5-7[12:1],,3,6,,,,,,,,,
{24}2-4[12:1]/4,,,1,,,62,,,8,,,7-5[12:1]/5-7[12:1],,4,8,,,,,,,,,
{24}2b/4b,,,7b/5b,,,1b-5[8:1]/8b-4[8:1],,,3b/6b,,,1b<2[4:1]/8b,,,,,,,,,,,,
{24}8-6[12:1]*-2[12:1],,,,,,8,,,,,,4<6[12:1]*>2[12:1],,5,3,,,,,,,,,
{24}86,,,75,,,64,,,35,,,24,,2,4,,4,5,,5,7,,7,
{48}1-5[2:1],,,,,,,,,,,,,,{24},,{48}E7,E8,,,{24},,,,,,,,,,,,,
{24}6bx,,7hbx[24:4]/5bx,,,,3bx,,4bx/2hbx[24:4],,,,7,,7,5,,5,3,2,1,8,7,6,
{24}5<8[12:1]/2>5[12:1],,,,,,2/5pp2[4:1],,,,,,65,,,,,,8<5[12:1],,,1,,1,
{24},,3h[6:1],,,,4,,5h[24:3]/2,,,8-6b[12:1],,,6,4-2[12:1],,8,2,,,,,,
{24}6,,2,4,,7,5,,2,4,,7,5>4-2<1[8:1],,46,,,,85,,,6h[24:3],,,
{24}8,,8,6,,6,4<8[8:1],,4,,,,4b/2>4[12:1],,,1,,,2b/1pp6b[4:1],,,8,,,
{24},,,,,,E4/B3/E3f/D4/A3,,,5,,5,4q8[8:1],,,53,,,24,,,1,,1,
{24}8-3[12:1],,,7,,,8/6-1[12:1],,,5,,,6/4-7[12:1],,,3,,,2/4,,,1,,,
{24}8,,8,2>5[12:1],,2,4,,,2,,,6,,6h[8:1],,,5,7,,,82,,,
{24}3,,3,5,,5,7,,7,5,,5,3,,3,1,,1,7,,7,5,,,
{24}3-8[12:1]/7-3[12:1],,,,,,7/3<1[24:5],,,,,,2h[24:5]/3,,,,,,,,3,4,,6,
{24}57,,,18,,,4q5[24:5]/2,,,36,,,4/7h[24:5],,,,,,,,6,5,,,
{24}2>5[12:1]/8,,,1,,,6-2[12:1]/2,,,7,,,4<7[12:1]/6,,,3,,,1x/4,,1x,,,,
{24}3-5[16:1]/8,,,1/6-1[12:1],,,3w7[8:1],,,6,,,3,,,,,,45,,3,7,,,
{24}1>4[12:1]/5<8[12:1],,,,,,A8/A1/D1f/A5/D5/A4,,,,,,2h[24:5]/1w5[12:1],,,,,,,,,,,3,
{24}42,,,81,,,5p4[24:5]/7,,,63,,,5/2h[24:5],,,,,,,,3,4,,,
{24}7<4[12:1]/1,,,8,,,3-7[12:1]/7,,,2,,,5>2[12:1]/3,,,6,,,8x/5,,8x,,,,
{24}7h[8:1]/1,,,1,,,1-7[12:1]*-6[12:1]/4h[8:1],,,1,,,1-3[12:1],,,,,,1<7[12:1],,,,,,
{1},E
