&title=!⸮ WAS IT A CAT I SAW ?!
&artist=MO2
&first=0.1
&des=阿零
&lv_5=13
&inote_5=(107)
{4}1<4[4:2]/6v4[4:2],,,,1<5[4:2]*>5[4:2],,,,8z4[4:2]/4z8[4:2],,,,Ch[4:3],,,,
(120)
{8}7h[8:1]/4h[8:1],,7h[8:1]/3h[8:1],,6h[8:1]/3h[8:1],,6h[8:1]/2h[8:1]0,,
5h[8:1]/4,E6/B6,5h[8:1]/3,B6/B7,4h[8:1]/5,E4/B3,4h[8:1]/6,B3/B2,
3pp6[8:4]/6qq3[8:4],,3/6,,,,,,1bh[8:6]/8bh[8:6],,,,,,,,
{16}7/8,,7/8,,1-4[16:2],2,1],,1-5[16:2]/8,B3f,,,1/7,Cf,,,
8,7,1,2,8/7,,1/2,,
{24}1pp4[16:2]/8qq5[16:2],,,2/7,,1b/8b,,,,,,,
{16}2/1,,2/1,,8-5[16:2],7,8],,8-4[16:2]/1,B6f,,,8/2,Cf,,,
1,2,8,7,1,2,8,7,
{24}8qq5[16:2]/1pp4[16:2],,,7/2,,8b/1b,,,,,,,
{16}6/7,,8/7,,8-3[16:2],1,8,,8-4[16:2]/1/7,B2f,,,8/6,Cf,,,
7,6,8,1,7/6,,8/1,,
{24}8pp3[16:2]/7pp4[16:2],,,1/6,,8b/7b,,,,,,,
{16}4/5,,3/6,,2-6[16:2],7,8,,7-3[16:2]/2,,,,1/7,,,,E8,E2,E7,E3,B8,B1,B7,B2,
{24}6bx/3bx,,,5bx/4bx,7bx/2bx,,,,,,,,
{16}6/3v8[16:2],,B5/B6,,3<6[16:2],,B6/B7,,2v7[16:2]/3,,B5/B4,,2/1,,,,
3/6v1[16:2],,B4/B3,,6>3[16:2],,B3/B2,,7v2[16:2]/6,,B4/B5,,7/8,,,,
5/2v7[16:2],,B4/B5,,2>5[16:2],,B5/B6,,1v6[16:2]/2,,B4/B3,,1/8,,,,
2/5v8[16:2],,B3/B2,,5>2[16:2],,B2/B1,,6v1[16:2]/5,,B3/B4,,6/7,,,,
8h,2,7,1,8,2,7,1,7,2,6,3,7,2,6,3,6,6,3,3,6,6,3,3,5,5,4,4,5,5,4,4,
6h[16:2],,3,,2h[16:2],7,7,,6h[16:2],,3,,2h[16:2],7,7,,
4>5[16:9]/5<4[16:9],,,,,,,,,,,,,,,,
C,,,,5/C,,,,1-5[16:2],8,2,,1/8,,,,5,3,6,4,5w1[16:2],,1,,5b,B5`C`B1,,,3/6,,,,
C,,,,4/C,,,,8-4[16:2],1,7,,8/1,,,,C/4-2[16:2],,,,5/4-1[16:2],,,,5/4-8[16:2],,,,6/4,,,,
C,,,,8/C,,,,4-8[16:2],5,3,,4/5,,,,8,2,7,1,8w4[16:2],,4,,8b,B8`C`B4,,,2/7,,,,
C,,,,1/C,,,,5-1[16:2],4,6,,5/4,,,,4v2b[16:9]/3-5<2b[16:9],,,,4b/3b,,,,,,,,,,,,
C,,,,8/C,,,,4-8[16:2],5,3,,4/5,,,,8,2,7,1,8w4[16:2],,4,,8b,B8`C`B4,,,2/7,,,,
C,,,,1/C,,,,5-1[16:2],4,6,,5/4,,,,C/1-3[16:2],,,,8/1-4[16:2],,,,8/1-5[16:2],,,,7/1,,,,
C,,,,5/C,,,,1-5[16:2],8,2,,1/8,,,,5,3,6,4,5w1[16:2],,1,,5b,B5`C`B1,,,3/6,,,,
6pp5[16:8]/3qq4[16:8],,,,6/3,,,,,,,,,,,,7h[16:14]/2h[16:6],,,,,,,,3h[16:6],,,,,,,,
Cf,,5/6,,4/6,,4/7,,3/7,,2/6,,1/5,,2/6,,2-8[16:1],5,4,3,2,5,4,3,6h[16:2],3,,,B6/C/B3,,,,
7-1[16:1],4,5,6,7,4,5,6,3h[16:2],6,,,B6/C/B3,,,,7,7,1,1,8>4[16:3],8,2,2,2<6[16:3]/8,,,,,,,,
2-8[16:1],5,4,3,2,5,4,3,6h[16:2],3,,,
{16}2/7,2,2/6,2,2/7,2,2/6,2,
{16}6,5,2,3,6,5,3,4,4-1[16:2]/5-8[16:2],,,,,,,,1-4[16:2]/8-5[16:2],,2/7,,1/8,,
6,6,3,3,7,7,2,2,6,6,3/5,3/5,4/6,4/6,
{24}6qq5[16:2]/3pp4[16:2],,,4/5,,6b/3b,,,,,,,
{16}8<5[16:2]/3v5[16:2],,,,,,,,
{24}5,,6,4,,5,
{16}3<6[16:2],,6,,3`B5`E6,,,,5>2[16:2],,2,,5`B4`E4,,,,
3/4,,,,
1>4[16:2]/6v4[16:2],,,,,,,,
{24}4,,3,5,,4,
{16}6>3[16:2],,3,,6`B4`E4,,,,4<7[16:2],,7,,4`B5`E6,,,,
6/5,,,,
5<8[16:2]/2v8[16:2],,,,,,,,
{24}8,,7,1,,8,
{16}2<7[16:2],,7,,2`B8`E8,,,,8>3[16:2],,3,,8`B1`E2,,,,
2/1,,,,
4>1[16:2]/7v1[16:2],,,,,,,,
{24}1,,2,8,,1,
{16}2h[16:2]/7h[16:2],,,,E8,E2,E7,E3,B8,B1,B7,B2,
{24}6bx/3bx,,,5bx/4bx,7bx/2bx,,,,,,,,Chf[16:2],
E
