&title=IMAWANOKIWA
&artist=いよわ
&first=0
&des=アマリリコ
&lv_5=14
&inote_5=(178){1},
{8}5/6h[4:1],,4,,2h[8:3]/5,5,,6,,
{16}7h[16:5],,5,,,5,,,3h[8:1],,4,,,,
{8}5,5,3-6[8:1],3,,,7,7,4-8[8:1],4,5-7[8:1],5,,,
2h[4:1],,1-5[8:1],,3-1[8:1],,
4h[16:3],,8-4[8:1],,6-8[8:1],,5-1[8:1],,7-5[8:1],,,,
2,2,6-3[8:1],6,,1h[4:1],,4-8[8:1],,2-4[8:1],,7V51[4:1],,3,3,,
2h[4:1],,3h[4:1],,4h[4:1],,6,6h[4:1],,
{16}3,5,3,,{8}2-5[8:1]/4-7[8:1],24,,,,
1b-4[4:5]/8b-5[4:5],,
{4},,,,,,
{8}4>1[8:1]/5<8[8:1],,,,,2,2-6[8:1],,28,,
{16}7h[16:3],,,5h[16:3],,,4-8[8:1],,,,
{8},2,2,,7,7,5,5,{16}6,4,6,,2h[16:1],,,,5,3,4,,3,5,4-8[8:1],,6,,6,,,,,,
7,5,6,,4,6,5-8[8:1],,8,,,,
7,,1h[16:3],,,3h[16:3],,,4h[8:1],,5h[16:3],,,7h[16:3],,,8h[8:1],,
1w5[8:1],,,,,,,,,,
{8}37,37,,1-5[8:1],,5-2[8:1]*-8[8:1],,,,
3,3h[8:1],,,,7,7p3[8:1],,17,,
{16}2h[16:3],,,4h[16:3],,,5-1[8:1],,,,,,7,,7,,,,
2,4,2,4,3,5,3,5,4,6,5>2[8:1],,7,,,,8,,8,,1,7,1,,2-6[8:1]/6,,26,,,,,,
7,5,7,5,6,4,5,3,4-8[8:1],,,,
2,,1h[16:3],,,2h[16:3],,,4h[8:1],,5h[16:3],,,7h[16:3],,,8h[8:1],,
{8}2-5[8:1]*-6[8:1],,,,,47,4-8[8:1]/7-5[8:1],,47,,1w5[8:1],,,,,,
46,46,5,,24,24,,3,,7,6,5,,2h[8:1],4,,3,4,5,,
6,5,4,3-6[8:1],,6,,45,45,,
1-5[8:1]/4-7[8:1],,1b/4bV28[16:3],,
{16}8,7,6,5,4h[8:1],,2h[8:1],,{12}1-5[8:1],3,8,1,,,
{16}6,6,3,3,{12}5-1[8:1],4,6,5,,,
{16}7,4,7,4,8,2,8,2,4,3,4,3,5,2,5,2,7h[8:1],,4,,4,,5,,1<3[16:3],,,,6,,,,
{8}7qq4[4:1],,3,2,1pp5[4:1],,6,7,8qq4[4:1],,5,4,3v5[8:1],,36,,
7h[8:1],5h[8:1],6h[8:1],4h[8:1],{16}5,,3,4,,2,5,,
{8}7<5[8:1]/8-5[8:1],,7bv4[8:1]/8b-4[8:1],,7b/8b,,
5-2[8:1]/7-4[8:1],,5bV71[16:3]/7b,,
{16}1,2,3,4,5h[8:1],,7h[8:1],,8-4[8:1],,6,5,8,,,,
3,3,5,5,{12}2-5[8:1],2,4,2,,,
{8}7<3[4:1],,5,,8<4[4:1],,6,,1<4[4:1],,7,,2<5[4:1],,8,,
4-1[8:1],,34,3,,2,8,,5-8[8:1],,56,6,,7,1,,
36,,45,45,,2v3[8:1]/7v6[8:1],,,,
{16}1,8,1,,7,,5/6-2[8:1],,,,,,4p6[8:9],,3b>6[1:1],,,,
{4},,,,,,,
{8}45,,34,25,,56,47,,38,{16}2,1,2,1,2,1,2,,,,
{8}8-4[8:1],,4-6[8:1],,,2V48[16:3],,7,7,,
{16}8,,2,1,2,,34,,45,,56,,78,,,,2,,6,5,6,,47,,3-6[8:1],,6-3[8:1],,,,,,,,
7,6,5,,3,2,1,,6,5,4,,,,
{2}3h`4,4`5,6h`5,2`7,
{16}4h[8:1],,5,,36,,,,2-5[8:1]/4,,,1,2,,8,,
6h[8:1],,5,,47,,,,2>5[8:1]/4,,,8,2,,7,,
6,,45,,34,,,,2v5[8:1]/8,,,6,2,,7,,
3h[8:1],,4,,25,,,,2-5[8:1]/6,,,5,2,,6,,
7h[8:1],,8,,16,,,,6-1[8:1]/4,,,5,6,,4,,
3b,,4b,,5b/2b,,,,7b<4[8:1]/5b,,,1b,7b,,2b,,
3,,54,,65,,,,7v4[8:1]/1,,,3,7,,2,,
6h[8:1],,5,,74,,,,7-4[8:1]/3,,,4,7,,3,,
2,,2,,13,,,,34,,,3,4,,2,,6,,6,,57,,,,78,,,7,8,,6,,
25,,25,,34,,,,45,,,6,56,,57,,8,,8,,17,,,,12,,,2,24,,34,,
6,,56,,56,,,,4/7-5[8:1],,,4,,,4,,
2,,24,,24,,,,1-4[8:1]/5,,,5,,,5,,
7,,57,,57,,,,3/6V84[16:3],,,3,,,3,,,,
{8}2h[8:1],4h[8:1],5h[8:1],7,,
{4}8<4[8:1]/5v2[8:1],5bV71[16:3]/8b,
{16}1,2,3,4,{8}5h[8:1],7h[8:1],1q5[8:1],{16}2,4,1,,,,
6,4,6,4,{12}7-4[8:1],3,3,7,,,
{16}2,5,2,5,1,7,1,7,5,6,5,6,4,5,3,4,2h[8:1],,8,,8,,4,,4-6[8:1],,,,6-3[8:1],,,,
{8}7qq1[4:1],,1,2,3pp6[4:1],,6,7,8qq5[4:1],,3,2,1-4[8:1],,14,,
{16}5,,3,,3,,6h[8:1],,4h[8:1],,7,5,,6,5,,
2>4[8:1]/8q4[8:1],,,,2bv5[8:1]/8b-6[8:1],,,,2b/8b,,,,
{4}2v5[8:1]/4-7[8:1],2b/4bV28[8:1],
{16}8,7,6,5,4h[8:1],,1h[8:1],,6-3[8:1],,2,2,6,,,,
1,4,1,4,{12}2-5[8:1],5,5,2,,,
{4}7>4[4:1],1,6<3[4:1],8,5b<3[4:1],7,4b<3[4:1],6,
{8}5pp4[4:1],,45,4,,3,34,,1V38[4:1],,18,8,,7,57,,
6-1[8:1],,26,2>6[8:1],,2v5[8:1]/8p4[8:1],,28,,
{16}3-6[8:1],6,3,,,,,,7-2[8:1],2,7,,,,
1h[8:1],,4,3h[8:1],,6,5h[8:1],,7,4h[8:1],,1,2h[8:1],,6,4h[8:1],,
5,3h[8:1],,7,8h[8:1],,6,5h[8:1],,{32}7b,8,1,2,3,4,5,6,7,8,1,2,3,,,,
{16}1h[8:1],,,2h[8:1]/4h[8:1],,,3h[8:1]/5h[8:1],,,,6,4,6,4,
7h[8:1],,,5h[8:1]/6h[8:1],,,1h[8:1]/8h[8:1],,,27,,,27,,,,
3h[16:3],,,4h[16:3],,,5h[16:3],,,
6-4[8:1],,,7,,,8-5[8:1],,,1,,,3-7[8:1],,,4,,,6<1[8:1],,,5,,
5V38[4:1],,,8,,,7,,,6h[8:1],,1,6,,78,,
5,7,5,7,5,7,5,,{24}3b,4,3,4,3,4,3,4,3,4,3,,
{8}5,5,2-7[8:1],2,,,6,6,8-4[8:1],8,7-5[8:1],7,,,
{16}1,,,,2`4,,,,3,,,,5`7,,,{32}2,3,4,,,,7,6,5,,{8}1-5[8:1],,,6,,
{16}7,4,7-4[8:1],,,,{8}5,,2,25,,
{8}3<5[8:1],3,5p1[8:1],6,7-3[8:1]*-5[8:1],,,,4,4w8[8:1],,,,
2,12,,6,56,,
{24}3,4,5,6,7,8,1,2,3,4,5,6,{8}7b-3[8:1],,,,
{1}2-4[2:1]`4-1[2:1],
7-5[2:1]`5-8[2:1],
4qq1[4:5]/5pp8[4:5],
E
