&title=勾指起誓
&artist=ilem
&first=0
&des=RiX
&des_5=RiX
&lv_5=12+
&inote_5=(85){1},
7-2v7<6-3>2[3:4],,
7<6-3>2v7[3:4]*-1>2v7[3:4],,
{4}8>4[8:1]/7,6,1<5[8:1]/2,3,
7<3[8:1]/8,1,2>6[8:1]/1,8,
6<1[8:1]/5,4,3>8[8:1]/4,5,Ch[8:1],
{16}E6,B6,B7,E8,E4,B3,B2,E2,
{8}8,1,8p4[8:1],4<8[8:1],8/2,1b,
1q5[8:1],5>1[8:1],7/1,8b,
7q5[8:3],8/1,7,A1,A2,,
8-6-4-2-8[5:4]*<6>4>2<8[5:4],C,8b,B8,B6,B4,B2,
{4},{16},8,
{8}1>6[12:5]*>5[12:4]*>4[12:3]*>3[12:2]*>2[12:1],1,1,,,,
1x>3[12:1]/4x,8x<6[12:1]/5x,1x-4[12:1]/4x,8x-5[12:1]/5x,1x/4x,8x/5x,
1/4,5/8,Chf[8:1],,
{16}1qq4[5:2]/8pp5[5:2],,2/7,2/7,8/1,,,,
{4},
{8}6<2<6[4:1],2,6,,,6<2[4:1]/2>6[4:1],B1/B5,6x/2x,,,
2-6[11:4],2>6[4:1]b,
{4},,
{8}4/5<8[8:1],6,5/4>1[8:1]b,3,4/5-8[8:1],6,5/4q1[6:1]b,3,5h[16:1]b,,
{16}2/7,,3/6,5/4,5-8[8:1]/4-1[8:1],,6,,5/4,,
{8},8/7,6/5,4/3,1/2,8-4<8[5:2]*-4>8[5:2],,
{4},,
{16}5/4,,3/6,3/6,5p8[8:1]/4q1[8:1],,3,,5/4,,
{16},,1/5,,2/6,,3/7,,4/8,,1<5[10:4]/5>1[10:4],,1/5,1/5,1x/5x,,
{8},{4},
{8}5w1[5:2],4/6,5,,
{4},
{8}8/1,7,8/1,2,6/3,
{16}7/2,7/2,7v2[8:1]/2v7[8:1],,
{8},,,
{16}3/6,,4/5,4/5,3>6[4:1]/6<3[4:1],,4/5,,3/6,,
{4},{8},{4}
5q2[8:1]/4h[4:1],,4p7[8:1]/5h[4:1],,6q2[8:1]/3h[4:1],,3q7[8:1]/6h[4:1],,7q3[8:1]/2h[4:1],,2q6[8:1]/7h[4:1],,
{8}5-7>8v2>3-5[5:2]*-3>2v8<7-5[5:2],,5,,
{4},6<2[8:1],3h[8:1]b,3>7[8:1],6h[8:1]b,7>3[8:1],4h[8:1]b,2<6[8:1],5h[8:1]b,5<3[8:1],4h[8:1]b,4>6[8:1],5h[8:1]b,Chf[8:1],
{8}4-2<1v7<6-4[5:2]*-6<7v1>2-4[5:2],,4,,,,
{8}Cf,,7/2>4[8:1]b,1/8,2/7<5[8:1],8,7/2p5[6:1]b,1,7h[16:1]b,,
{16}2/7,,3/6,3/6,2p5[8:1]b/7q4[8:1]b,,1/8,,2/7,,
{8},8-6[8:1],6-4[8:1],4b-2[8:1]b,2b-8[8:1]b,8bx-4-6<8[5:2]b*-4-2<8[5:2]b,,
{4},,
{16}2/7,,1/8,1/8,2p3[8:1]b/7q6[8:1]b,,1/8,,2b/7b,,,,
{16}1/5,,2/6,,3/7,,4/8,,1b<5[10:4]*<6[10:3]*<7[10:2]*<8[10:1]/5b>1[10:4]*>2[10:3]*>3[10:2]*>4[10:1],,1/5,1/5,1x/5x,,
{8},{4},
{8}4bw8[5:2]*w8[5:2],3/5,4b,,{4},
{8}8/1,7/C,8/1,2/C,6/3,
{16}B6/B3,7/2,7v2[8:1]/2v7[8:1],,
{8}3/6,2/7,,
{16}3/6,,4/5,4/5,3>8p4[2:1]b/6<1q5[2:1]b,,Cf,,3b/6b,,
E
