&title=Grandspell
&artist=Hylen
&first=0
&des=CRYSPELL
&lv_5=14
&des_5=CRYSPELL
&inote_5=
(168){4},{8},,,,,,8-6-4[8:7],
,,5,,,{4}3,
{8},1,,,1-3-5[8:7],,,4,
,,{4}6,{8},8,,,7-5-3[8:7],
,,4,,,{4}2,
{8},8,,,2-4-6[1:1],,,5,
,,{4}7,{8},1,,,{4}8h[4:1],
6h[4:1],4h[4:1],2,
{16}1h[16:3],,,3,{8}1,4,{16}5h[16:3],,,3,{8}6,4,
{4}8bh[4:7],1,{8}6h,6h,,4h,
{4}4h,{8}2h,2<5[4:1],,,,,{4}4h[4:7],
5,{8}2h,2h,,8h,
{4}8h,{8}6h,6<3[4:1],,,,,{4}1h[4:7],
8,{8}6,6h[8:1],,4,
{4}4h[8:1],{8}2,2>7[4:1],,,,,{4}8h[4:5],
1,{8}6,6h[8:1],,4,
{4}4h[8:1],{8}2,2,{16}7,5,6,4,5,3,{8}4,
{4}1>6[4:1],1/6-8-4[4:1],{2}8h[1:1],
{4}6-4[16:1],6,3-5[16:1],1/3,
8<3[4:1],8/3-1-5[4:1],{2}1h[4:3],
{4}3-5[16:1],3,{16}E7h[16:1],,,Ch[16:1],,,{8}E3h[16:1],
8,8,8/7,7,7/6,6,6/5,5,
5/4,4,4/3,3,3/2,2,2/1,1,
{16}8,2,7,3,6,4,5,5,7,1,6,2,5,3,4,4,
{2}4h[2:1],{8}E2/A2/E3,E7/A6/E6,{4}C,
8b-6[32:3],{32}5,4,{16}3,,,{2}5h[4:1]/2b>6[8:1],
{4}8b-6[32:3],{32}5,4,{16}3,,,{4}5h[4:1]/2b>6[8:1],2,
8b-6[32:3],{32}5,4,{16}3,,,{2}5h[4:1]/2b>6[8:1],
{4}8b-6[32:3],{32}5,4,{16}3,,,{8}2b/5,A7/E7/B7,E4/B3/A3,C,
{4}1xh[4:1],{32}E6,E7,E8,E1,E2,E3,E4,E5,{4}6xh[4:1],{32}E5,E6,E7,E8,E1,E2,E3,E4,
{4}5xh[4:1],{32}E4,E5,E6,E7,E8,E1,E2,E3,{4}4xh[4:1],{32}E3,E4,E5,E6,E7,E8,E1,E2,
{4}3xh[4:1],{8}8-6[16:1],4-8[8:1],8,4,7,1-5[8:1],
5-3[32:3],1,7,7,2-7[8:1]/6-3[8:1],1/5,,,{4}8h[4:1],
{24}7,8,7,8,7,8,{4}7b<3[8:1],1,
2h[4:1],{32}4,5,{16}6,,,{2}4h[4:1]/7b<3[8:1],
{4}1b-3[32:3],{32}4,5,{16}6,,,{2}4h[4:1]/7b<3[8:1],
{4}2h[4:1],{32}4b,5,{16}6,,,{8}7-4[8:1]/3-8[8:1],6/2,,,{4}1xh[4:1],
{32}E6,E7,E8,E1,E2,E3,E4,E5,{4}6xh[4:1],{32}E5,E6,E7,E8,E1,E2,E3,E4,
{4}5xh[4:1],{32}E4,E5,E6,E7,E8,E1,E2,E3,{4}4xh[4:1],{32}E3,E4,E5,E6,E7,E8,E1,E2,
{4}3xh[4:1],{8}8-6[16:1],4-8[8:1],8,4,7,1-5[8:1],
5-3[32:3],1,7,7,{16}2z6b[8:1],2,,,{4}8h[4:1],
{1}Ch[4:3],
{4}Ch[2:1]/B7h[32:17]/B3h[16:9]/E7h[32:19]/E3h[8:5],,,E1,
{16}4h,5h,4,5,3h,6h,4,5,2h,7h,3,6,1h,8h,2,7,
{2}1bh[2:1],{4}8-4[8:1]*-6[32:3],8,
{2}B6f,{16}Cf,D3f,B4f,A3f,{8}A4f,{16}A7f,B8f,
E7f,Cf,{8}E6f,{16}E4f,B4f,E3f,Cf,{4}A2f,8b,
7-5[16:1]/1-5[32:3],7/1,{16}3,4,4,5,{8}5h[8:1],{16}7,6,
6,5,{8}5h[8:1],{16}3,4,4,5,{4}5h[4:1],{32}E8,E7,E6,E5,E4,E3,E2,E1,
{4}1bx-4[8:1],5bx-2[32:3],{8}8bx,8bx-4[8:1],,5bx,
{4}5bx<1[8:1],{8}3bx,4bx>8[8:1],,6bx,{4}6bxh[4:1],
E8f/A7/E1,E4f/E5/A3,{8}1bx,1bx-5[8:1],,4bx,
{4}4bx>8[8:1],{8}6bx,6bx,1-4[8:1]/5-8[8:1],6/2,,,{4}7b-5[16:1]/5b-3[16:1],
7/5,{12}2h,3h,4h,7h,6h,5h,
3h,4h,5h,8h,7h,6h,{2}1bp5[8:1],
{4}6b-4[16:1]/4b-2[16:1],6/4,{40},1h[20:3],,,,,,,{10}3h[8:1],{40},1h[20:3],,,,,,,{8}4h[8:1],
1h[40:7],{40},,,5h[40:7],,,,,,,{2}1bs5[8:1],
{4}8bx-5[8:1],4bx-7[32:3],{8}1bx,1bx-5[8:1],,4bx,
{4}4bx>8[8:1],{8}6bx,5bx<1[8:1],,3bx,{4}3h[4:1],
E2f/E1/A2,E6f/A6/E5,{8}8bx,8bx-4[8:1],,5bx,
{4}5bx<1[8:1],{8}3bx,3bx,{16}4,8,3,7,{4}6-1[8:1]/2-5[8:1],
{1}Cf/6bpp1b[2:3]/2bpp5b[2:3],
,4h[1:1]/8h[8:13],
{8},,,,,E6,E5,E4,
{1}8V64[8:7],
1-7-5[8:7],
2-8-6[8:7],
{4}4h[4:3],,,C,
1>6[4:1],1/6-8-4[4:1],{2}8h[1:1],
6-4[16:1],3-5[16:1],
{4}8<3[4:1],8/3-1-5[4:1],{2}1h[1:1],
3-5[16:1],6-4[16:1],
{4}2>5[4:1],5<8[4:1],{2}1h[4:5],
2-5[8:1],8-5[16:3],
{4}7<4[4:1],4>1[4:1],{2}8h[4:5],
7-4[8:1],1-5[8:1],
{4}2,4/2,5/3,6/4,
7h[4:1],5,6/4,5/3,
2,4/2,5/3,6/4,
7h[4:1],5,{16}E3h[16:1],,,Ch[16:1],,,{8}E7h[16:1],
1,1,1/2,2,2/3,3,3/4,4,
4/5,5,5/6,6,6/7,7,7/8,8,
{16}1,7,2,6,3,5,4,4,2,8,3,7,4,6,5,5,
{2}5h[2:1],{8}E8/A7/E7,E3/A3/E4,{4}C,
8z4b[2:1],,,C,
2b-4b[16:1],2b/1b-5b[8:1],1b/8b-6b[16:1],4b,
7b-5b[16:1],7b/8b-4b[8:1],8b/1b-3b[16:1],5b,
{16}2b-5b[32:3],1b,,1b,{8}2b,7b,8bx-5b[8:1]/4bx-1b[8:1],7bx/3bx,,,{4}2bx<7b[8:1],
5bx/2bx>5b[8:1],7bx/2bx-6b[8:1],8bx,
7bx>2b[8:1],4bx/7bx<4b[8:1],2bx/7bx-3b[8:1],1bx,
2bx<7b[8:1],5bx/2bx>5b[8:1],6bx/2bx-6b[8:1],7bx,
7bx-5b[16:1],4bx,1h[4:1],{8}8,8,
3-5[16:1],2,6-8[16:1],7,1-5[8:1],2,8-4[8:1],7,
2-8[16:1],3,7-5[16:1],6,{4}4>1[8:1]*-8[8:1],4,
{8}7-1[16:1],6,2-4[16:1],3,5-1[8:1],6,4-8[8:1],3,
6-4[16:1],7,3-1[16:1],2,7v6-4[16:3],8,,,{4}1h[4:1],
{8}B3`B4,8h[8:1],B7`B6,2h[8:1],B3`B4,8h[8:1],
B7`B6,2h[8:1],B3`B4,1h[8:1],A7/E8/A8,A3/E4/A4,{4}C,
8h[4:1],{8}B6`B5,1h[8:1],B2`B3,7h[8:1],B6`B5,1h[8:1],
B2`B3,7h[8:1],B6`B5,8h[8:1],{16}3,3,{8}5,{4}1-5[8:1],
8/1,A6/B6/B5/B4/B3/A3,{2}2v4[8:1]*<7[8:1],
{3}5-1[6:1],3,2-6[6:1],
8,7<4[6:1],1,
{4}2-5[8:1],1,{6}8<5[6:1],,4,
,3>8[6:1],,5,,7-4[6:1],
,1,,2-7[6:1],,8,
,6-3[6:1],{12},,{4}4,1h[4:1],
{12}E7,E3,D6,D2,E1,C,D8/A7/E8,A4/E4/D4,D6/E6/A5,E2/A2/D2,E7/D7/B6,B2/E3/D3,
{1}8<3pp7[4:7],
,1>6-4v3[4:7],
{4},,,,8h[2:3],
2,3,4,
5,6,{2}4<7[8:1],
{4}2h[2:3],4,5,6,
7,8,{2}1-4[8:1],
{1}Ch[16:0],
E
