&title=もみ
&artist=ミニマムカーター
&first=1.9
&des=₍₍ ᕕ(^ᐊ^)ᕗ⁾⁾
&lv_5=13+
&inote_5=(130)
{8}
1/B5,,2/B7/E7,,3-5-3[16:3]/B8/E1/B1,,,,{16}8,,4,6h[16:3],,,2,,4,3h[16:2],,5,4>8[12:5],6,5,,
{8}7,7,7,7,7,7,7,7<5[8:1],7,7,7>1[8:1],7,7,7,7,7,
{16}7,8,6,1,5,2,4,3,5,4,6,5,7-5[10:1],4,8-2[10:1],3,7v4[8:1],,,,,,
3,,3,,5,,6-8[8:1]/4-8[8:1],,5,,4bV26[12:3]/6b,,,,4,,7,,5<8[8:1],,4,,3-1[8:1]/5-1[8:1],,4,,5V73[12:3]/3,,,,5,,2,,4>1[8:1],,5,,6-8[8:1]/4-8[8:1],,5,,4V26[12:3]/6,,,,4,,5,,7-5[10:1],,8,,4-8[8:1],,3,,1>6[16:5],,2q7[16:3],,,,,,,,,,
4-1[8:1],,,,3b<5[10:1],,,,3,,7,,3>1[10:1]/6,,,4,3,,5-2b[8:1],,Ch[16:14],,5-8b[8:1],,,,5-2b[8:1],,,,5-8b[8:1],,,,5,,6b>4[10:1],,,,6,,2,,7>1[10:1]/3,,,5,7,,4-7b[8:1],,3,,4-1b[8:1]/2,,,,4-7b[8:1]/6,,,,4-1b[8:1]/3,,,,45,,
7h[16:1],,8h[16:1]/6h[16:1],,4h[16:1]/5h[16:1],,1h[16:1]/7>4[16:3],,4h[16:1]/5h[16:1],,7b/6,,,,5h[16:1],,8h[16:1]/6h[16:1],,4h[16:1]/5h[16:1],,1h[16:1]/7>4[16:3],,4h[16:1]/5h[16:1],,7b/6,,,,5h[16:1],,8h[16:1]/6h[16:1],,5h[16:1]/4h[16:1],,8h[16:1]/7h[16:1],,3h[16:1]/4h[16:1],,1h[16:1]/7>4[16:3],,4h[16:1]/5h[16:1],,7b/6,,,,5h[16:1],,8h[16:1]/7h[16:1],,4h[16:1]/5h[16:1],,8h[16:1]/7>4[16:3],,3h[16:1]/5h[16:1],,7b/6,,,,5h[16:1],,8h[16:1]/6h[16:1],,
7h[16:2],,5,6,4,,2h[16:2],,4,3,,5,4,,3,,7h[16:2],,5,6,4,,2,2,4,3,,5,5,4,6,5,7h[16:2],,5,6,4,,2,2,4,3,,5,4,4,6,,2h[16:2],,4,3,5,,7,7,5,6,,45,45,,3,,
6,5,7,8,6,4,7>4[16:3],8,5,4,7b,,,,1,1,7,8,6,5,7>4[16:3],1,5,4,7b,,,,1,1,7,8,6,5,7,8,5,4,7>4[16:3],8,4,3,7b,,,,1,1,7,8,6,5,7>4[16:3],1,5,4,7b,,,,1,1,6,6,
2,4,3,5,1,,2,2,4h[16:2],,1h,,2h,5h/3h,,4h[16:2],,1h,3h,,5h[16:2],,2h,4,3b,,3b,,2h,4,3b,,1h[16:2],,2,2h[16:3],,,3,3,4h[16:3],,,5,2h,4,3b,,1h,2h,4h,3h,5,4,2,3,,3,8,,7,,61,,2-6[8:1]/5-8[8:1],,,,25,,,,1-4[8:1],,4,,3-7[8:1],,,,5<8[8:1],,5,,2V48[12:3],,,,1h[12:3],,,,,,,,2-5[8:1]/6-1[8:1],,,,2/6>8[12:3],,,,8,,7,,6p2[8:1],,,,1v4[8:1],,1,,8,,7,,6-1[8:1],,2-5[8:1],,,,,,8-4[8:1],,6,,2>5[8:1],,1,,6q2[8:1],,7,7,4v1[8:1],,3,,5,,5,,2>5[8:1]/6<1[8:1],,,,2-6[8:1]/6,,,,2,,1,,8,8,7,7,6,6,5,5,4,4,3,3,2,2,1,1bs5b[16:4],,,,,,,2-7[8:1],,3-6[8:1],,2,,3b,,8,,{32}7/1>7[64:12],2>7[64:11],3<7[64:10],4<7[64:9],,,{16}1,,,8,,3v8[9:1],,2,,3/5<8b[9:1],,4,,{32}1>7[64:12],2>7[64:11],3<7[64:10],4<7[64:9],,,{16}1,,,8,,3v8[9:1],,2,,3/5<8b[9:1],,4,,{32}1>7[64:12],2>7[64:11],3<7[64:10],4<7[64:9],,,{16}1,,,
8,,2-8[10:1],,3,,6q7[12:3],,5,,7>6[16:4],,1,,,,5,,7,,8,,31,,42,,
{32}5b<3b[64:12],6<3[64:11],7>3b[64:10],8>3[64:9],,,{16}5,,,4,,7v4[9:1],,6,,7/1>4[9:1],,2,,{32}5<3b[64:12],6<3[64:11],7>3b[64:10],8>3[64:9],,,{16}5,,,4,,7v4[9:1],,6,,7/1>4[9:1],,3,,{32}5<3b[64:12],6<3[64:11],7>3b[64:10],8>3[64:9],,,{16}5,,,
4,,8-4b[8:1],,7-5b[10:1]/5,,
8-2b[10:1],,7-3b[8:1],,8<2b[16:5],,7p1[16:3],,,,,,,,,,78,,56,,
{4}3z7[12:3]/4,7z3[12:3],3z7[12:3],7z3[12:3],3z7[12:3],7z3[12:3],3z7[12:3],7,{16}8b<5[8:1],,,,83,,2,,1/4-8[8:1],,,3,4,,2-4[10:1],,17,,2/6-8[10:1],,,,56,,3,,4/8>3[8:1],,26,,48,,
{8}7bz3b[12:3],,3z7b[12:3],3,7z3b[12:3],7,3z7b[12:3],3,7z3b[12:3],7,3z7b[12:3],3,7z3b[12:3],7,3,3,{16}1b>4[8:1],,,,16,,7,,8/5-1[8:1],,,6,5,,7-5[10:1],,82,,7/3v8[8:1],,,,43,,5>2[8:1],,6p1[7:1],,{4}7qq4[16:27],,,,,,,,,
{8}1h/7,6,5,4,{16}2h/6,,5,3h,4,,2,,{32}7,6,5,,,,,,,,,,4h,,,,8/3h,7,6,,2h,,,,5h,,,,4h,,,,
{8}3h/7,6,5,4,{16}2h/6,,5,1h,4,,8,,{32}7,6,5pp5qq5[16:13],,,,,,,,,,,,,,,,,,,,,{1},,,,,,,,C,
