&title=Kirakira Noel Story!!
&artist=Reku Mochizuki
&first=0
&des_1=XM_Dresk
&des_2=XM_Dresk
&des_3=XM_Dresk
&des_4=XM_Dresk
&des_5=XM_Dresk
&lv_5=14
&des_6=XM_Dresk
&des_7=XM_Dresk
&des=XM_Dresk
&inote_5=(180)
{4},,,,
1b/8b-2-6-4<5-3-7-1b[4:14],,C,,,,C,,,,C,,,,C,,
2-4-6[4:2],,B8,,7-5-3[4:2],,B2,,1>7[4:3],,C,,8z4b[4:2],,,,
{8}
2hx[4:1],,4,5xh[4:1],,3,4xh[4:1],,5,6xh[4:1],,4,5x-3[8:1],,6/5x,,
7hx[4:1],,5,4xh[4:1],,6,5xh[4:1],,4,3xh[4:1],,5,4x-8[8:1],,,,
1h[8:1],,2h[8:1]/4h[8:1],,3h[8:1]/5h[8:1],,4h[8:1]/6h[8:1],,
7h[8:1],,4h[8:1]/6h[8:1],,3h[8:1]/5h[8:1],,2h[8:1]/4h[8:1],,
5h[8:1]/3,3,4h[8:1]/6,6,
{16}
A4,A3,A2,A1,A5,A6,A7,A8,E2,E3,E4,E5,E6,E7,E8,E1,A6/B6,B3/A3,A5,A4,Cf,,,,
{8}
1h[4:1]/7-5[8:1],,,,4-8[8:1]/2h[4:1],,,,
3-1[8:1]/7h[8:1],,7h[8:1],,8-4[8:1]/6h[8:1],,6,,
5-7[8:1]/3h[4:1],,,,8-4[8:1]/2h[4:1],,,,
3-1[8:1]/5h[8:1],,5h[8:1],,6>3[8:1]/2h[4:1],,,,
1-5[8:1]/8h[4:1],,,,4-2[8:1]/6h[4:1],,,,
7-5[8:1]/3h[8:1],,3h[8:1],,4-8[8:1]/2h[8:1],,2,,
1-5[8:1]/7h[4:1],,,,6-8[8:1]/4h[4:1],,,,
2h[8:1]/7-3[8:1],,2h[8:1],,4b-1b[8:1]/5b-8b[8:1],,4b/5b,,
{8}
7h[8:1],4,2h[8:1],5,3h[8:1],8,6h[8:1],1,
8-6[12:1],8,2-4[8:1],2,1-5[8:1],1,3,,
7h[8:1],4,2h[8:1],5,3h[8:1],8,6h[8:1],1,
7-3[8:1],7,1-5[8:1],1,A8/E8/B8/E1,,B4/B3/E4/E3/E5,,
6p4[4:2]/2h[4:1],,,,,3,3,,2p8[4:2]/5h[4:1],,,,,7,7,,
6-2[8:1]/1h[4:1],,,,3-7[8:1]/8h[4:1],,,,
A2/E2/E3/B2/6bx,,4bx/A8/B8/E1/E8,,
{16}
2,6,4,5,1>4b[8:1],,,,
{64}
8b/1b,D2f,,,,,,,
{16}
6,5,7h[8:1],,2,1,3h[8:1],,5,,46,,37,,
{8}
2/8-4[8:1],7,1-5[8:1],2,7-4[8:1],6,2,,
{16}
15,,3,4,2h[8:1],,7,8,6h[8:1],,4,,35,,26,,
1/7-4[8:1],,6,,3v8[8:1],,2,,5b>2b[8:1]*<8b[8:1],,,,5b,,,,
17,,2,4,3h[8:1],,6,8,7h[8:1],,1,,28,,37,,
4-1[8:1]/6,,3,,5-8[8:1],,6,,2-6[8:1],,3,,7,,,,
84,,7,5,6h[8:1],,3,1,2h[8:1],,8,,71,,62,,
3h[8:1]/5,,7,,2/8h[8:1],,4,,35,,6,5,7,,12,,4v1b[8:1]/8v5b[8:1],,48,,
{64}
4b/8b,Cf,,,,,,,,,,,,,,,
{16}
26,,6,5,7h[8:1],,1h[8:1],,
8-4[8:1],,2-6[8:1],,8-6-4-2b[4:1],,2,,8,,2,,1-5[8:1],,,,
18,,6,4,7h[8:1],,3,5,2h[8:1],,8,,17,,26,,
7-3[8:1],,1-5[8:1],,7,,1,,8b>3b[8:1]*<5b[8:1],,,,8b,,,,
46,,3,4,2h[8:1],,6,5,7h[8:1],,1,,28,,37,,
{8}
45,45,26,26,37,28,37,46,
{16}
3,5,3,5,2,6,2,6,1,7,1,7,8,8,8,8,8h[8:1],,
{32}
7b,6,5,4,1h[8:1],,,,8b,7,6,5,2h[64:7],,,,1bx,8,7,6,
{4}
5-1[12:1]/3,
{64}
5b/4z8<1s5b[4:13],Cf,,,,,,,,,,,,,,,
{4},,,,,,,,,,,,,,,
7-5-8[4:3],,Ch[384:1],,3-1-4b[4:3],,Ch[384:1],,
8<2[4:3],,Ch[384:1],,1-7-3-5b[4:2],,,,
{8}
8bx<5[8:1],,18,2bx-6[8:1],,26,7bx-4[8:1],,57,3bx>8[8:1],,
35,6bx-3b[8:1],,2bxh[4:1]/6bx,,
4bx-2<1[8:1],,54,7bx-3[8:1],,17,2bx-5[8:1],,26,8bx-6>5[8:1],,
48,3bxv8b[8:1],,,,
7,7,64,3h[4:1],5,5,24,1h[4:1],8,8,17,6h[4:1],4,3,52,3,
24,35,46,57,18,27,36,45,
{16}
3,5,4,6,3,7,2,8,1-5b[8:1],1h,1h,1h,
{64}
1bh,Cf,,,,,,,,,,,,,,,
{16}
8bh[8:1],,2,5,,4,6,,3-5[8:1],4,2,,37,,6,,
84,,6,5,,3,4,,6-8[8:1],5,7,,46,,3,,
12,,7,4,,3,5,,6-4[8:1],5,7,,62,,3,,
15,,3,4,,6,5,,2-5[8:1],4,3,,28,,6,,
4bh[8:1]/7bh[8:1],,,5h[8:1]/6h[8:1],,,4,5,3,5,4,,21,,38,,
4bh[8:1]/7bh[8:1],,,5h[8:1]/6h[8:1],,,4,5,3,5,4,,12,,37,,
4bh[8:1]/8bh[8:1],,,5h[8:1]/6h[8:1],,,4,5,3,5,4,,2/1<6[8:1],,38,,12,,
3,4,2h[8:1],,7,8,6,5,7h[8:1],,2-6b[8:1],8,4,6,
{64}
2b,Cf,,,,,,,
{16}
7,5,,3,4,,2v5b[8:1],1,4,,28,,6,,
37,,4,8,,5,6h[8:1],,3<6b[8:1],4,2,,31,,7,,
48,,2,4,,6,5,,7v4b[8:1],8,5,,71,,3,,
26,,7,5,,3,5h[8:1],,4-8b[8:1],6,2,,47,,5,,
2hb[8:1]/6hb[8:1],,,5h[8:1]/7h[8:1],,,4,6,2,5,3,,17,,35,,
2hb[8:1]/6hb[8:1],,,5h[8:1]/7h[8:1],,,4,6,2,5,3,,17,,34,,
2hb[8:1]/6hb[8:1],,,5h[8:1]/7h[8:1],,,4,6,2,5,3,,17,,35,,
5hbx[16:1]/6hbx[16:1],,,7hbx[16:1]/8hbx[16:1],,,
1hbx[16:1]/2hbx[16:1],,,3hbx[16:1]/4hbx[16:1],,,45,,45,,
{4}
3hb[4:1]/6b,5<2b[8:3],5b/B4h[4:1]/B3h[4:1]/E4,,
3,5/4>7b[8:3],4b/B5h[4:1]/B6h[4:1]/E6,,
5,4/6-8>1-5b[8:3],6b/E3/B3h[4:1]/B2h[4:1],,
4,5/3-8-2-4b[8:3],3b/E7/B6h[4:1]/B7h[4:1],,
5,3/7V53b[8:2],7b/E2/B1h[4:1]/B2h[4:1],,
4,6/2V46b[8:2],2b/E8/B8h[4:1]/B7h[4:1],,
7,3/5-7v1b[8:3],5b/E3/B2h[4:1]/B3h[4:1],,
2,8/4>1b[8:1],4b/5b<8b[8:1],5b/4b,
{16}
1bx/2bx,,1bx/2bx,,3hbx[8:1]/8bx,,7,5,6h[8:1],,
3,4,2,5,1,6,8,7,8,7,1,5,1,5,4,6,2,5,3,7,4,6,1bh[8:1],,6,5,7h[8:1],,
2,1,3,8,3,8,4,7,5,6,4,5,2,5,3,7,4,6,3,5,3,5,2,6,4,5,3bh[8:1],,
7,8,6h[8:1],,4,5,3h[8:1],,1,2,8,,37,,
56,,56,,34,,34,,12,,78,,56,,34,,
2,1,3,8,4,7,5,6,8,7,1,6,2,5,3,4,2h[8:1],,
{32}
8b,7,6,5,3h[8:1],,,,1b,8,7,6,2b,3,4,5,6,7,8,1,
{4}
2b-7b[12:1]/6b-3b[12:1],
{64}
2bp8b[4:15]/6bp4b[4:15],Cf,
{4},,,,
E
