&title=10pt8ion
&artist=Little Show Magic
&first=0.02
&des=百合咲ミカ
&wholebpm=185
&clock_count=4
&lv_5=14
&inote_5=(185)
{1},
{8}1b-6-2-5-8-3[16:21]b/8b,,,,,,,6x,,7h[16:10],,,,,,,
3/5<3[16:21],,,,,,,E7,,Ch[16:10],,,,,,,
2/8^5[16:7],,,,B7/B6,,,
4/5x,,4x^1[16:5]/5,,,B7/B6,,,,
1/8V64[16:7],,,,B7/B6,,,
3/5x,,3x/5V31[16:5],,,B7/B6,,,,
{384}1x>7[8:27],8x<2[8:23]*<2[8:23],,,,,,,,,,,,,,,,,,,,,,,,,,,,,,,,,,,,,,,,,,,,,,,
{8},,,,,,,,,,,,,,,,,,,,,,,,,,,,,,,4/3,4/3,2/5,2/5,1/6,1/6,7/8,7/8,
{16}2x,1,3,8,4,7,5,6,4,5,3,4,2,5,1,6,8xh[4:1],,,,
7-3[6:1],,1,,2xh[8:1]/7x,,,,1xs5[16:3],,,,1/8,,,,
6,,4,,3-1[8:1]/5-7[8:1],,,,3x/5x,,,,
8xb^5[6:1],,,,3/8,,2xp6[6:1],,,,2/6,,5x,,,,
3x,4,1,8,2,,6x,5,8,2,4^7[6:1],,3x,,2,,
1bq5[6:1],,,,1/7,,8x^3[6:1],,,,3/8,,4x,,,,
6x,5,7,,3x,4,2,8,5,7,4,6,3,,2/5,,
1b,,,,4bv3[6:1]*v5[6:1]/5b,,,,4w8[6:1],,,,,,,,
2x/6x,,3,4,3,,2,,5,4,6,5,7,,8x/1x,,
2-4[8:1],,2,,5-1[6:1],,5,,7x-3[6:1],,,,8x,,8x,,
1bh[8:1],,4,3,6h[8:1],,2x,2,,8x,8,,
{24}2x,3,4,6x,7,8,
{16}2b-5-3[4:1],,,,2/6,,7x-4-8[4:1],,,,2/7,,1x,,,,
2/7,,3,5,1,,2/6,,7,3,1,,2x/8,,3/7x,,
4b/6bV47[4:1],,,,3/6,,2x-5-1[4:1],,,,2/8,,7,,,,
6x,2,8,,3x,7,2,8,3,6,1,,2x/5,,3/4x,,
1xb-5[6:1]b,,,,1bw5[6:1]b,,,,1x,,,,C,,,,
3/7,,2,4,3,,6x,,8x,7,1,8,2pp6[16:10],,,,
2x/5x,,,,6,,7h[8:1],,,,7pp3[16:10]b,,,,
3/7,,,,2h[8:1],,,,2,,1xh[8:1],,4x,2x,6x,,,,
3/5,,4h[4:1],,6h[4:1],,,,3h[4:1],,5h[4:1],,,,4,,,,
3/4x,,2,,5x/6,,7,,
{24}4x,5,3,4,,,2x,,,
{16}1b/8bh[8:7],,,,E6,,,E3,,,E7,,E2,,,,
2xbpp5[16:8]/5xb,,,,8,,,6,,,7x,,8x,,,,
2/5,,3h[4:1],,4,,6h[4:1],,5,,3,4,2x,,1,,
2/8,,3,,4/6,,7,,5x,8,4,7,3x,6,2,,
1bh[8:7]/5b,,,,4,,,6x,,,3,,7x,,,,
2b-6-3-5[16:7]b/8b,,,,7h[8:1],,,8,,,8,,Ch[8:1],,,,
3x-1[8:1],,,4,3,,5,,7x-5[8:1],,,8,7,,1,,
2,,,5/6,,,3/4,,8xh[4:1],,,,Chf[4:1],,,,
(185)
{8}8b,7,6,5,4,3,2,1,A8,A7,A6,A5,A4,A3,A2,A1,
(170)
{8}8x,7,6,5,
(155)
{8}3x,1,7,5,
(140)
{8}D4,D3,E5,E2,
(128)
{8}E6,E1,D7,D8,
{16}6x,,2,,4/5,,7,7,
1x,,6,,3/4,,2,2,
5x,,1,,4/6,,7,8,
6x-4[10:1],,2-8[10:1],,6x,,2x,,
7-3[8:1],,1,,2xh[8:1]/7x,,,,1xs5[16:3]b,,,,1/8,,,,
3xh[1:0],,3,3,3xh[1:0],,3,,2xp4[16:3]/4xh[8:1],,
3,4,2x<5[4:1]b,,,,2xb,,,,,,
{24}3,,4,2x,,1,4,,5,1x,,8,5,,6,8x,,7,2,,5,
1x,,6,3,,4,2x-5-3[16:3],,1,1,,,2/8x<3[4:1]b,,,,,,
{16}2xb/8xb,,,,,,1,8,2x,3,2,1,2x,4,2,8,
3xh[4:1],,4,,5h[4:1],,4,,Ch[4:1],,,,8h[32:1],,,,
{24}1x/7x-3[8:1]b,6x,5x,4xh[8:1],,,7b,,,,,,
{16},2/4,3x,3,,5/6,7x,7,,2/8,1x,1,,4/5,6x,6,,
2-7[12:1]/7-2[12:1],1x,8x,,,,,
3b/6b,,,,2xh[1:0],6,8h[1:0],4,
2xh[1:0],8,4h[1:0],6,
2xh[1:0],6,8h[1:0],4,
2xh[8:1],,8,,3/5,,8,,
4h[8:1]/5,,B6,,8h[8:1],,B2,,
(128)
{16}5xh[8:1],,,,4,6,,3/7,,2,8,1,,7,3,5,
(140)
{16}4xh[8:1],,,,6,4,,3/7,,2,8,1,,7,4,5,
(155)
{16}3xh[8:1],,,,3,6,,6,
2xh[8:1],,,,2,7,,7,
(170)
{16}1xh[8:1],,,,1,8,,3,4-1[8:1],,5,,6x/4x,,,,
(185)
{16}7x/8x,,,1,6,,2,,3x/5,,,6,4,,7,,
3/8x,,,2,1,,3,,4x/8,,,7,5,,6,,
3/4,,2,,6/5,,7,,2/4,,1,,7/5,,8,,
2,1,3,8,4,7,5,6,
{32}4x,3,2,1,8,7,6,5,4x,3,2,1,8,7,6,5,
{4}4xv5V73-1v8[16:22],,,,,,
{16}Ch[4:1],,,,,,,,1,7,1,7,1,7,1,7,2,6,2,6,2,6,2,6,
3x-1[8:1],,3,,5x-7[8:1],,5,,1x-5[8:1]b,,1,,8b/Cf,,,,
7,,3,,2/5,,6,4,6,,3,,2/5,,1,,7/8,,
1,6,1-3[8:1]*-4[8:1],6,1,6,1x-6[8:1]*-7[8:1],,,,1x,,,,
{24}2b,,,2x,3,4,5/6x,,,7,,,
{16}2/8,,1,,1/7,,8,,
1/2q6[8:1],,,,5x^8[8:1],,5x,,2p6[8:1],,,,5x,,5x,,
3b/4b,,2,,1/5,,7,8,7,,1,,2/6,,5,,3,4,2,5,3,4,2,5,
{24}3x,E3,E2,A1,,,7x/8x,E7,E6,A5,,,
2x/4x,,,3,5,3,5,,,
{16}2,,1/7-3[8:1],,6,,1<3[16:7]/7,,,,A1f,,,,,,
7x,,7x-3[8:1]b,,,,1b,,,,
2b/4b,,6x,5,7,,1,8,2,8,3,,4/6,,5/7,,
8xbh[8:1],,3,4,2xbh[8:1],,6,5,1x,2,8x,,3b/7,,3/7b,,
{24}2/8,,,7,6,5,4/3,,,2,,,
{16}8/1,,7,,2/6,,3,,
4/5xb-8[8:1]b,,,,2b-6[8:1]b,,2,,8xb-5[8:1]b,,,,3,,2,,
1b/4b,,5,,2b,8,2,,7b,3,6,4,5xb,5x,5x,,
1xb,8,2,7,1b,8,2,7,1bh[8:1],,
6,5,3x/4x,2,1,8,
7xb,7,2x,2,8xb,8,1x,1,
{24}8b,7,6,1b,2,3,7b,6,5,2b,3,4,
{16}8bqq4[8:5]b,,,,,,1,,1-5[8:1]b,,,,1x,,,,
2x/7x,,,,3h[4:1],,5h[4:1],,,,4qq1[16:7],,,,
6,,,,7h[8:1],,,,,,
3x,5,4,6,2x,5,4,7,
1bh[8:1],,8,,,,
{32}1b/8b,2,3,4,,,,,1b/8b,7,6,5,,,,,
{384}1bV75V31[4:3]*V75V31[4:3],8bV24V68[4:3],
E
