&title=Ether Second
&artist=Akira Complex
&first=-0.15
&des=双层吉士汉堡
&lv_7=13?
&des_7=双层吉士汉堡
&inote_7=
(150){4},,,,,,,,,,,3,
4/2,3,5/2,7h[8:1],
6h[8:1]/8h[8:1],7h[8:1],6h[8:1]/1h[8:1],2,
1/3,2,8/3,4h[8:1],
5h[8:1]/2h[8:1],4h[8:1],{8}3/6h[8:1],1x,{4}7,
7/C,6,6/C,5h[8:1],
5h[8:1]/C,4h[8:1],4h[8:1]/C,3/Ch[8:7],
3,2,{8}1,1h[4:1],,B7/A7,
{16},B3/A3,,,B6/A6,,,E2/D2,,,{8}B7/A7,{4}4xw8b[8:5],
B4/E5/E4,C/B6/B2,A8/D8/D1,5xw1b[8:5],
B5/B6/B4,C/B7/B3,A1/D1/D2,1xw5b[8:5],
B1/B8/B2,C/B6/B4,A5/D6/D5,8xw4b[8:5],
B8/B1/B7,C/B3/B5,A4/D4/D5,{16}5x/3xh[16:3],,,4,
,,{8}8/2h[16:3],{16},6,,,4/5h[16:3],,,7,,,{8}8/1h[16:3],
{16},4,,,5/6h[16:3],,,8,,,{8}1/7,{16}8x,2,5x,2,
8x,2,5x,2,8x,2,4x,2,8x,2,4x,2,{32}8x,7x,6x,5x,4x,3x,2x,1x,
8x,7x,6x,5x,4x,3x,2x,1x,{4}8xw4[8:1]/4xw8[8:1],C,{16}5,2,5,2,
6,1,6,1,7,8,7,8,{4}6xh[4:1],{16}2,8,2,8,
3,7,3,7,4,6,4,6,{8}5xh[4:1],6,{16}7,8,7,8,
6,1,6,1,5,2,5,2,{4}4xh[4:1],{16}1,7,1,7,
2,6,2,6,3,5,3,5,{8}4xh[4:1],8x,{16}2,1,2,8,
3,4,3,5,4,5,4,6,{4}5xh[4:1],{16}7,8,7,1,
6,5,6,4,5,4,5,3,{8}4xh[4:1],1,{16}2,8,1,8,
2,7,8,7,4,5,4,6,{4}5xh[4:1],{16}7,1,8,1,
7,2,1,2,5,4,5,3,{8}4xh[4:1],Cf,{16}2,8,1,8,
2,8,1,8,3,8,1,8,{4}4xh[4:1],{16}7,1,8,1,
7,1,8,1,6,1,8,1,{8}5xh[4:1],4,{16}1,7,8,7,
1,7,8,7,2,7,8,7,{4}3xh[4:1],{16}8,2,1,2,
8,2,1,2,7,2,1,2,{8}6xh[4:1],1x,{16}2,5,4,5,
1,6,5,6,2,4,1,5,{4}2xh[4:1],{16}7,4,5,4,
8,3,4,3,7,5,8,4,{8}7xh[4:1],3,{16}1,6,4,7,
2,5,4,6,1,4,3,5,{8}2xh[8:3],4,,E6/B6/E7,
,E3/B2/A3,,E8/A7/A8,,B7/A7/B2/A2,4xh[16:1]/6xh[16:1],3h[16:1]/5h[16:1],
{16}7,2,8w4[8:1],4,{4}5w1[8:1],{8},,2,2,
7/4,{16}6w2[8:1],8,{4}2w6[8:1],{8},,1h[16:1]/6h[16:1],5h[16:1]/2h[16:1],
{16}8,2,6w2[8:1],4,{4}1w5[8:1],{8},,4,4,
5/2,{16}3w7[8:1],8,{4}7w3[8:1],{8},,8h[16:1]/2h[16:1],7h[16:1]/3h[16:1],
{16}6,4,2w6[8:1],1,{4}4w8[8:1],{8},,7,7,
6/4,{16}5w1[8:1],3,{4}7w3[8:1],{8},,1h[16:1]/4h[16:1],8h[16:1]/3h[16:1],
{16}2,7,1w5[8:1],5,{4}3w7[8:1],{8},,,6x/E4/B3/A3,
,2x/E7/A7/B7,,8x/E4/D4/A4,,2x/B7/B6/E7,{4}1bxw5b[8:5],
{16}8x,2x,8x,2x,{4}1xw5[8:1],1x,{8}7/3,6/2,
{16}7,6,5/1w5[8:1],2,{8}3/5xw1[8:1],1x,{4}C,8bxw4b[8:5],
{16}7x,1x,7x,1x,{4}8xw4[8:1],8x,{8}6/2,7/3,
{16}2,3,4/8w4[8:1],7,{8}6/4xw8[8:1],8x,{4}C,{8}7xw3b[8:5],2xw6b[2:1],
{16}8,1,8,1,{4}8xw4[8:1]/1xw5[8:1],8x/1x,{8}5x/4x,8x/1x,
{16}7,6,5/1w5[8:1],2,{8}3/5xw1[8:1],1x,{4}C,{8}6xw2b[8:5],3xw7b[2:1],
{16}5,4,5,4,{4}5xw1[8:1]/4xw8[8:1],{8}5x/4x,,,8x/B3/E3/B2/A3/A2,
,3x/E6/B6/A6/A5/D6,,5x/E2/A1/B1/B2/A2/D2,,3x/E8/A7/A8/B8/D8,6x/2x,{16}4,3/5,
,7,{8}6/8,{24}2,1,2,8,,,{12}3/7,2/6,1/5,8bh[4:7]/E5h[1:4],{1},{4},,,{6},{4}1h[4:7],
,,,,,,,1,
6/4,7/E3h[4:1],6/E4/A3,2/B7h[4:1],
1/D8/A7,8/E3h[4:1],{8}7/A3/E4,7,4,4,
4/5,4/6,7,7,7/4,{16}6,6,4,4,5,5,
3,3,7,7,2,2,8,8,1,1,6,6,4,4,{32},6x,5x,6x,
{16}5x,{32}2x,1x,{8}2x,{32}7x,8x,{16}7x,{32},,3x,4x,{8}3x,{32}8x/4x,7x/3x,6x/2,5/1,{4}8xw4b[8:5]/4xw8b[8:5],
,8xw4[8:1]/4xw8[8:1],Cf/B6/B2,{8}2bx/7bx,3,
{16}7w3b[8:3],4,,1,{8}8w4[8:1],1,{4}8,{8}2bx/8bx,7,
{16}3w7b[8:3],4,,6,{8}4w8[8:1],5,{4}4,{8}6bx/2bx,3,
{16}5w1b[8:3],4,,6,{8}4w8[8:1],3,{4}4,{8}7bx/3bx,2,
{16}1w5b[8:3],8,,2,{8}8w4[8:1],7,{4}8,{8}7b/3b,6/2,
{16}5w1b[8:3],4,,7,{8}4w8[8:1],2,{4}4,{8}3b/7b,4/8,
{16}5w1b[8:3],6,,3,{8}6w2[8:1],7,{4}6,{8}6b/2b,5/1,
{16}4w8b[8:3],3,,6,{8}3w7[8:1],2,{4}3,{16}1,7,8,7,
1,7,8,7,2,3,4/7,6,5/1,2,3,4,{4}Cf/5bw1b[8:7],
8w4[8:1],8,4xw8[8:1],4,
2/6,7w3[8:1]*w3b[8:1],{16}7b,Cf,,,{4}1bw5b[8:7],
5w1[8:1],5,1xw5[8:1],1,
{12}5,{24}8,1,2,3,{12}4b/7b,,2b/8b,,4b/7b,,{4}5bw1b[8:7]/3bw7b[8:7],
7xw3[8:1],7x,4xw8[8:1],4x,
7x/1xw5[8:1]*w5b[8:1],{16}1b,Cf,,,{8}6x/4x,{16}5,3,7,3,5,3,
7,2,6,2,8,1,5,1,8,8,8,8,{24}7x,6,5,1x,2,3,
7x,6,5,8x,1,2,{32}5bx,4,3,2,1,8,7,6,5,4,3,2,1x,8/2x,7/3x,6xw2[32:49]/4xw8[32:49],5bxw1b[2:3],B5f,
E
