&title=AIZO
&artist=King Gnu
&first=-0.03
&des=Hakusei
&des_5=Hakusei
&lv_5=13+
&inote_5=(190){4},,,,,,,,{2}8x-5[8:1]/3x-5[8:1],
3x-5[8:1]/8x-5[8:1],
{8}6,6,4,5,{4}3<6[8:1],2,
{2}8xs4[8:1]/1xz5[8:1],1xz5[8:1]/8xs4[8:1],
{8}3,3,2/4,2/4,{2}5/1-5[8:1],
8x-5[8:1]/3x-5[8:1],8x-5[8:1]/3x-5[8:1],
{8}2,2,{4}4h[4:1],6h[4:1],8,
{2}8x-5b[8:1]/4xv1b[8:1],5x-8b[8:1]/1xv4b[8:1],
{8}6,6,5/7,5/7,{12}6,4,7,3,5,1,
{24}8bx,7bx/1bx,6bx/2bx,3bxh[4:1]/5bxh[4:1],{48},,,,,,,,,,,,,,,,{16}4,6,4,6,3,5,3,5,
{4}2-6[8:1],2/8,7-4[8:1],7/1,
2h[4:1],{8}3>6[4:1],3,,4,{4}4,
3>8[8:1],3/5,7<4[8:1],7/1,
3bh[4:1],{8}5p4[4:1],6,,7,{4}7,
3>8[8:1],3/5-1[8:1],5/1,3-7[8:1],
3/7,{8}8-5[8:1],8,,1,{4}1-4[8:1],
1/3-6[8:1],3/5-8[8:1],5/1-4[8:1]*-6[8:1],1,
{8}5,5,4,6,{16}4,5,{8}3,{4}2b/6b,
7<4[8:1],7/4,1>4[8:1],1/6,
6h[4:1],{8}5<1[4:1],5,,4,{4}4,
3-8[8:1],3/7,6-2[8:1],6/2,
3bh[4:1],{8}4p2[4:1],5,,6,6,7,
{4}8-4[8:1],8/2>5[8:1],2/5,6-1[8:1],
6/2,{8}4-1[8:1],4,,8,8,8,
7/1,6/2-6[8:1],,2/6>3[8:1],,8-4[8:1],,8,
2xh[8:3],,,1,{2}1b>8[4:1],
{1}Ch[2:3],
{4},,,,8/2>5-1[1:1],
8,,,E8,
E8,,,1/7-4-8[1:1],
1,,,E2,
E2,,,5/2<5[1:1],
5,,,E8,
E8,,,5/2>5v2[4:5],
5,,,{1}8v5b[4:1],
{4}3/4h[4:1],2-4[8:1],5,{8}6,4,
4,5-7[8:1],,5/3,,2,2,4,
{4}3/5,{8}4/6,7,{4}1,8/2,
{8}1,1,7,7,,6,5,4,
{4}5/3h[4:1],1-5[8:1],8,7>3[4:1],
{2}6,{8}5,5,3/4,3/4,
{16}2v3-5[4:1],,,1,,,{8}1,,7,7,7,
{16}4,6,4,6,3,5,3,5,2,4,2,4,1,3,1,3,
{4}1x-4[8:1],6x-4b[8:1],1x-4[8:1],6x-4b[8:1],
{8}2,2,{16}3,4,{8}3,{4}5/2>5[8:1],2/8,
6x-1b[8:1],2x-5[8:1],6x-1b[8:1],2x-5[8:1],
{8}8,8,1v4[8:1]/7v4[8:1],2/6,{4}1/7,3b/5b,
6x-1[8:1],4x-1b[8:1],6x-1[8:1],4x-1b[8:1],
{8}8,8,{16}7,8,{8}7,{4}1/6,2/5,
6x-1b[8:1]`2xv5[8:1],2x/6x,6x-1b[8:1]`2xv5[8:1],2x/6x,
{8}3/8,3/8,2/7,6/1,{4}5-8b[8:1]/8q3[1:1],5b/8b/Cf,
,,,,5/3,
{8}4,4,{16}3,3,3,3,3,3,3,3,
{4}2bx-6[8:1],2/6-2[8:1],8-5[8:1]*-3[8:1],8,
{8}4,4,3/5,{16}6,5,6,5,{8}6,4,4,
{4}3/7-3[8:1],7/3-7[8:1],1-4[8:1]*-6[8:1],1,
{8}5,5,4/6,{16}3,5,3,5,{8}3,6,6,
1>4[8:1],8,{4}7/1<6[8:1],1/5-8[8:1],{8}3,2,
1/7,{16}6,8,{8}6pp4[4:1],1,1,2,2,3,
4/6,5,5/3,4,4/6,5,{16}3,4,3,4,
{8}2,{16}6,5,6,5,{8}7b-4[8:1]*-3[8:1],,7b,,,{4}6/2-6[8:1],
2/6-2[8:1],8<5b[8:1],{8}8/1,2,
{16}3,4,{8}3,{16}6,5,{8}7,8/1,2/7,3/6,4/5,
{4}3/7-3[8:1],7/3-7[8:1],1>4b[8:1],{8}1/8,7,
{16}6,5,{8}7,{16}3,4,{8}2,1,1,2/8,3/7,
{4}4/6<1[8:1],6/1-5[8:1],3-8[8:1],{8}4,5,
6/1,7,8,1/4,2,3,4/6,4/6,
{16}7,5,7,5,6,4,6,4,5,3,4,2,5,3,4,2,
{32}5bx,6,7,8,1,2,3,4,5,6,7,8,1,2,3,4,{4}5w1[8:1],Cf,
{1}7h[1:1]/3h[1:1],
E
