&title=Suomi
&artist=Aire
&first=0
&des=imdumb2024 - Slide Practice (including Umiyuri)
&lv_4=9
&inote_4=(125),
{8},,,,,,
5,,4,,5,,4,,
6,,3,,6,,3,,
7,,2,,7,,2,,
8,,1,,8,,1,,
{32}8h[1:1],,,,,,,,1,,,,1,,,,,,,,2,,,,,,3,,,,,,
4h[1:1],,,,,,,,5,,,,5,,,,,,,,6,,,,,,7,,,,,,
7h[1:1],,,,,,,,5,,,,5,,,,,,,,3,,,,,,2,,,,,,
2h[1:1],,,,,,,,8,,,,8,,,,,,,,6,,,,,,5,,,,,,
8b,,,,,,,,,,,,81,,,,,,,,72,,,,,,63,,,,,,
5b/4b,,,,,,,,,,,,63,,,,,,,,72,,,,,,81,,,,,,
6b/7b,,,,,,,,,,,,78,,,,,,,,81,,,,,,12,,,,,,
2b/3b,,,,,,,,,,,,21,,,,,,,,18,,,,7x,,,,,,,,
{4}6h[4:1],5h[4:1],4h[4:1],3h[4:1],
2h[4:1],1h[4:1],8h[4:1],7h[4:1],
{8}6,4,5,3,
{32}81,,,,7,,3,,,,6,,2,,,,
{8}E1,,E5,,Ch[4:1]f/E7,E1,E3,,
1-5[12:1],,1-4[12:1],,1-5[12:1],,1-6[12:1],,
1-5[12:1],,1-4[12:1],,1-5[12:1],,,,
8-4[12:1],,8-3[12:1],,8-4[12:1],,8-5[12:1],,
8-4[12:1],,8-3[12:1],,8b-4[12:1],,2b,,
5-1[12:1],,5-8[12:1],,5-1[12:1],,5-2[12:1],,
5-1[12:1],,5-8[12:1],,5-1[12:1],,,,
4-8[12:1],,4-7[12:1],,4-8[12:1],,4-1[12:1],,
4-8[12:1],,4-7[12:1],,4b-8[12:1],,2b,,
8-5[12:1]/1-4[12:1],,8-6[12:1]/1-3[12:1],,8-5[12:1]/1-4[12:1],,,,
5-8[12:1]/4-1[12:1],,5-7[12:1]/4-2[12:1],,5-8[12:1]/4-1[12:1],,,,
7-4[12:1]/8-3[12:1],,7-5[12:1]/8-2[12:1],,7-4[12:1]/8-3[12:1],,,,
1-6[12:1]/2-5[12:1],,1-7[12:1]/2-4[12:1],,1b-6[12:1]/2b-5[12:1],,1b/2b,,
8b/1b,,8,7,6,,1,2,3,,7,6,5h[4:1],1x,4h[4:1],8x,
5b,,7,1,3,,4,6,1,,72,63,Ch[2:1]f,,,,
{32}5,,,,,,6,,,,,,7,,,,E8,,,,81,,,,,,81,,,,,,
4,,,,,,3,,,,,,2,,,,E2,,,,81,,,,,,81,,,,,,
7,,,,,,6,,,,,,5,,,,E6,,,,54,,,,,,54,,,,,,
2,,,,,,3,,,,,,4,,,,E4,,,,54,,,,,,54,,,,,,
{16}5h[8:5]/4h[8:1],,,,4h[8:1],,,,4h[8:1],,,,4,5,4,,
7h[8:5]/6h[8:1],,,,6h[8:1],,,,6h[8:1],,,,6,7,6,,
1h[8:5]/8h[8:1],,,,8h[8:1],,,,8h[8:1],,,,8,1,8,,
3h[8:5]/2h[8:1],,,,2h[8:1],,,,2h[8:1],,,,2,3,2,,
7b/1b,,,,8,,5/3,,4,,7/1,,,5/3,,,
8b/2b,,,,1,,6/4,,5,,8/2,,,6/4,,,
7b/4b,,,,B6/B5,,5/2,,B4/B3,,7/4,,,5/2,,,
8b/6b,,,,E7/E8,,1/3,,E2/E3,,8/6,,7x,,,,
3h[4:1],,4,,4h[4:1],,5,,5h[4:1],,6,,6h[4:1],,7,,7h[4:1],,8,,8h[4:1],,1,,1h[4:1],,2,,2h[4:1],,3,,
4,5,6,7,8,1,2,3,4,5,6,7,8,,,,
E7/E3,,,,E5/E1,,,,Ch[4:1]f/E8,,E5,,E2,,,,
8-4[10:1]/1,,7,,1-5[10:1]/8,,2,,8-4[10:1]/1,,7,,1-5[10:1]/8,,2,,8-4[10:1]/1,,7,,1-5[10:1]/8,,2,,8-4[10:1]/1,,7,,1,,,,
5-1[10:1]/4,,6,,4-8[10:1]/5,,3,,5-1[10:1]/4,,6,,4-8[10:1]/5,,3,,5-1[10:1]/4,,6,,4-8[10:1]/5,,3,,5-1[10:1]/4b,,6,,4b,,,,
8<6[10:1]/1,,7,,1>3[10:1]/8,,2,,8<6[10:1]/1,,7,,1>3[10:1]/8,,2,,8<6[10:1]/1,,7,,1>3[10:1]/8,,2,,8<6[10:1]/1,,7,,1,,,,
5<7[10:1]/4,,6,,4>2[10:1]/5,,3,,5<7[10:1]/4,,6,,4>2[10:1]/5,,3,,5<7[10:1]/4,,6,,4>2[10:1]/5,,3,,5<7[10:1]/4b,,6,,4b,,,,
8-5[10:1]/1-4[10:1],,72,,8<6[10:1]/1>3[10:1],,72,,8-5[10:1]/1-4[10:1],,72,,,,,,
5-8[10:1]/4-1[10:1],,63,,5<7[10:1]/4>2[10:1],,63,,5-8[10:1]/4-1[10:1],,63,,,,,,
7-4[10:1]/8-3[10:1],,61,,7<5[10:1]/8>2[10:1],,61,,7-4[10:1]/8-3[10:1],,61,,,,,,
1-6[10:1]/2-5[10:1],,83,,1<7[10:1]/2>4[10:1],,83,,1b-6b[10:1]/2b-5b[10:1],,83,,,,,,
8,,7,,6,,5x,,1,,2,,3,,4x,,
54,,,6,7,,,3,2h[4:1],,4x,,7h[4:1],,5x,,
1,,2,,3,,4,,5,,6,,7,,8,,
E1,,E3,,E5,,E7,,8,1,2,3,4,5,6,,7b/8b,
