&title=七月の仇/十月のワンダーランド
&artist=麦コロッケ
&first=0.045
&des=ashimei
&lv_5=13+
&inote_5=(182.02)
{4},,4h[8:17],,,,,,,,,,,,,,,,4h[8:17],,,,,,,,,,,,,,,,
{8}4h[2:1],,,,5-1[6:1],,2,2-5[8:1],,8,8>3[6:1],,4h[4:1],,,,
{8}5h[2:1],,,,4-8[6:1],,7,7-4[8:1],,1,1<6[6:1],,
{16}5,,5,,5h[16:1],,4,,
{4}2>5[6:1],7,8-4[6:1],
{8}3,2,1-5[6:1],1,5,6,
{4}7h[4:1],,2>5[6:1],7,8-4[6:1],
{8}3,2,1-5[6:1],1,5>7[2:1],6,7h[4:1],,,,
{4}6h[16:3],5h[16:2],7h[4:1],1,
{16}25,,3,4,3V51[2:1],,5,,6h[4:1],,,,,,,,
{8}7,7,2h[8:1],,4-8[6:1],3,,
{16},,1,,6,5,6<4[2:1],,3,,3,,,,4,,,,
{4}5h[16:3],6h[16:2],4h[4:1],8,
{16}61,,7,8,7V15[2:1],,1,,2h[4:1],,,,,,,,
{8}3,3,6<1[4:1],1,2,3,4,
{16},,17,,4,5,4,,6h[8:3],,8,,,,7>2[8:1],,,,
{8}5<2[4:1],,3,4-8[8:1],,4,7,,6h[4:3],,7,7,,5,5,,
{8}4>7[4:1],,6,5-1[8:1],,5,2,,3h[4:3],,2,2,,4,4,5,
{8}6V82[4:1],,2V46[4:1],4-8[8:1],,,,,7-5[8:1],8,1,2-4[8:1],1,8,7-5[8:1],,
{8}1V37[4:1],,4-7[8:1],4-1[8:1],,,,,2-4[8:1],1,8,7-5[8:1],8,1,2-4[8:1],,
{8}24,,6-4[12:1],3,3h[8:1],,7-5[12:1],4,4h[8:1],,8-6[12:1],5,5h[8:1],,1-7[12:1],3,3h[8:1],,2-8[12:1],4,4h[8:1],,
{8}3-1[12:1],5,5h[8:1],,4-2[12:1],6,6h[8:1],,
{8}5V31[16:5],7,5,6,6,6,8-4[8:1],5-7[12:1],
{8}8V24[16:5],5,8,7,7,7,5-3[12:1],8-6[12:1],5,8,
{8}2>5[8:1],2,52,6,7<4[8:1],7,73,2,
{8}1-3[12:1],8-6[12:1],1-5[8:1],8-4[8:1],1>4[8:1],8<5[8:1],1,8,1bs5[4:15],,,,,,,,,,,,,,,,,,,,,,,,,,,,,,,,
{8}8z4[4:15],,4h[8:1],,4,,3h[8:1],,3,,2h[8:1],,2,,1h[8:1],,1,,8h[8:1],,8,,7h[8:1],,7,,6h[8:1],,6,,5h[8:1],,
{8}5bv8[8:1],,2v4[8:1],,7-3[8:1],,3,2,1h[8:3],4,5-1[8:1],6,7h[4:1],,,,
{8}1v3[8:1],,6-2[8:1],,4v1[8:1],,7,6,5h[8:1],7,3h[8:1],1,8h[4:1],,,,
{8}1h[16:3],,7h[8:1],,5-1[8:1],,5/7>2[8:1],,
{16}7,,3,4,5-1[8:1],,7,,7h[4:1],,,,
{8},,1-5[8:1],2,7V51[4:1],8,7,,4h[4:1],,5<8[8:1]*>2[8:1],,,,1-5[8:1],5,5,,
{8}6-2[8:1],6,4p8[8:1],4,7v4[8:1],7,7/4<7[8:1],,
{8}2-6[8:1],2,8p4[8:1],8,3-7[8:1],3,3/8>3[8:1],,
{8}4-8[8:1],4,6>3[8:1],6,1v7[8:1],1,4,5,
{8}68,68,68,68,3b/4,8b/2,6/5b,7b/1,
{8}3v8[8:1],3,5q1[8:1],5,2v5[8:1],2,5>2[8:1],6,
{8}7v4[8:1],7,1q5[8:1],1,6v1[8:1],6,1<6[8:1],2,
{8}3>8[8:1],3,5<8[8:1],5,1-5[8:1],2,3,4,
{8}68,68,68,68,
{16}1b,5,2b,6,3b,7,4b,8,5h[1:4],,,,
{4},7h[2:1],,,,7h[2:1],,,,7h[2:1],,,,7,,
{8}6,6h[8:7],,,5h[8:1],,,,3,3h[8:7],,,4h[8:1],,,,
{8}6h[1:1],,,,5,,,,3h[1:1],,,,4,
