&title=何かがおかしい
&artist=神前暁
&first=-0.22
&des=?
&lv_5=?
&des_5=?
&inote_5=
(100){4},{8}4,5,{4}6h[2:1],{8}1b,1b,
{4}1b,{8}5,4,3,2,4,5,
,,4,5,{4}6h[2:1],{8}1b,1b,
{4}1b,{8}5,4,3,2,4,5,
,,4,5,{4}6h[2:1],{8}1b,1b,
{4}1b,{8}5,4,3,2,4,5,
,,4,5,{4}6h[2:1],{8}1b,1b,
{4}1b,{8}5,4,3,2,4,1,
,,,1,3,4,5,6,
4,5,,,{4}5xh[4:3],{32}3,4,3,4,3,4,3,4,
3,4,3,4,3,4,3,4,{8}3,5,{4}6h[2:1],{8}1b,1b,
{4}1b,{8}5,4,3,1,6,5,
,,4,5,{4}6h[2:1],{8}1b,1b,
{4}1b,{8}6,5,3,2,5,4,
,,4,5,{4}6h[2:1],{8}1b,1b,
{4}1b,{8}2,4,3,5,6,4,
,,4,5,{4}6h[2:1],{8}1b,1b,
{4}1b,{8}2,4,5,3,6,1,
,,,1,2,4,5,6,
3,4,{4}5,{48},,,,,,,,,,,,1/5h[4:1],2,3,4,,6,7,8,1,2,3,4,
,,,,,,,,,,,,{4}8/4-6[8:1],4/7-4[8:1],{8}7/3b-7[8:1],3b,
{4}3b/6-3[8:1],6/2-6[8:1],2/5-2[8:1],5/1-5[8:1],
1/6-1[8:1],6/2-6[8:1],2/7-2[8:1],{8}7/3b-7[8:1],3b,
{4}3b/8-3[8:1],8/4-8[8:1],4/1-4[8:1],1/5-1[8:1],
5/1,1/5-3[8:1],5/2-5[8:1],{8}2/6b-2[8:1],6b,
{4}6b/3-6[8:1],3/7-3[8:1],7/4-7[8:1],4/8-4[8:1],
8/3-8[8:1],3/7-3[8:1],7/2-7[8:1],{8}2/6b-2[8:1],6b,
{4}6b/1-6[8:1],1/5-1[8:1],5/8-5[8:1],8/4-8[8:1],
{8}4/8,,,1-3[8:1],8-6[8:1],1-5[8:1],8-4[8:1],1>8[4:1],
8,1,{32},,,,,,,,1,8,1,8,1,8,1,8,1,8,1,8,1,8,1,8,
1,8,1,8,1,8,1,8,{4}2b>3<4<5<6<7b[2:1],7-3[8:1],7>8>1>2>3<4b[2:1],
4-8[8:1],4<5<6<7>8>1b[2:1],1-5[8:1],1>2>3<4b[4:1],
7,7<6>5>4>3>2b[2:1],2-6[8:1],2<1<8<7<6>5b[2:1],
5-1[8:1],5>4>3>2<1<8b[2:1],8-4[8:1],8<7<6>5b[4:1],
2,1b-3-7b[2:1],7-5[8:1],7-1-5b[2:1],
5-3[8:1],5-7-3b[2:1],3-1[8:1],3-5-7b[4:1],
1,8-6-2b[2:1],2-4[8:1],2-8-4b[2:1],
4-6[8:1],4-2-6b[2:1],6-8[8:1],6-4-2b[4:1],
{8}8,,,8-6[8:1],1-3[8:1],8-4[8:1],1-5[8:1],8<5[8:1],
1>4[8:1],8,{4}1,{48},,,,,,,,,,,,8b/1b,7b/2b,6b/3b,5b/4b,
E
