&title=Leave All Behind
&artist=Rider
&first=0.025
&des=Fort_233
&lv_5=13+
&inote_1=
&inote_5=(150)
{1},
{32}1b,2x/8x,3xqq4[16:107]/7x,4x/6x,5xpp4[16:106],,,,,,,,,,,,,,,,,,,,,,,,,,,,
{1},,,,,,
{2},5<4[4:15],
{2}1h[4:1],2h[4:1],3h[4:1],4h[4:1],5h[4:1],6h[4:1],7h[4:1],8w4[8:1],
{16}1h/7,,,2h,6,,3h,,5,4h,,,3h/6,,2h,,1h/7,,8,2h,7,,3h/6,,5,4h,6,,3h/7,,2h/8,,
{16}7,1,7,1,8,2,8,2,
{32}7,6,5,4,1,2,3,4,8,7,6,5,2,3,4,5,
{4}Ch[4:1],1w5[8:1],1^4[16:1]*-7[16:1],,
{16}1,7,5,7,3,7,5,7,1,7,5,7,3,7,5,7,1,7,5,7,3,7,B2/E2,,B8/B7,C/B6,B3/B4,B8/E8,C/B2,,,,
{16}8,2,4,2,6,2,4,2,8,2,4,2,6,2,4,2,8,2,4,2,6,2,B7/E8,B4/E4,B1/B2,C/B3,B6/B5,B1/E2,C/B7,,,,
{16}1,7,5,7,3,7,5,7,1,7,5,7,3,7,5,7,8,6,4,6,2,6,B3/E3,,B1/E2,B6/E6,B4/B3,B1/B2,C/B7,,,,
{8}4h[8:1],8h[8:1],3h[8:1],7h[8:1],2h[8:1],6h[8:1],1h[8:1],5h[8:1],
{16}1,5,1,6,1,7,1,8,
{32}2,3,4,5,8,7,6,5,1,2,3,4,7,6,5,4,
{1}Ch[1:4]/3bq8[2:3],,8<4[4:7],
{1},
{8},,5^7[12:1],4,4,,,,
{8}4/3,4,3^1[12:1],4,4,,,,
{8}5/4,,4^2[12:1],5,5,,,,
{8}5/6,5,6^8[12:1],5,5,,,,
{8}4/5,,5^7[12:1],4,4,,,,
{8}3/4,4,3^1[12:1],4,4,,,,
{8}4/5,,4^2[12:1],5,5,,,,
{8}5/6,5,6^8[12:1],5,5,,4,,
{2}3^8[2:1],8^5[2:1],
{4}5^2[2:1],,1,8,
{2}7^2[2:1],2^5[2:1],
{4}5^8[2:1],,3,2,
{2}1^4qq5^6pp5[4:11],
{4},,,,,4xqq5b[1:1],,,,,,,,,
{16}6^1[16:9],,,,5,,,,4,4,,3,,,2,,
{16}2^5[16:9],,,1,,,8,,7,7,,6,,,1xh[16:1],,
{16}B3,,,,B6,,B5,,B2,B1,,C,,B3,B4,,
{16}B6/B7,,,,B4/B3,,B7/E8,,B1/B2,E6/B5,,B4/C,,B3/E3,B7/B8,,
{16}3^8[16:9],,,,4,,,,5,5,,6,,,7,,
{16}7^4[16:9],,,8,,,1,,2,2,,3,,,2,,
{16}2^5[16:9],,,1,,,8,,7,7,,6,,,7,,
{16}6^1[16:9],6,,,5,,4,,4,,,3,,,2>1[8:27],,
{2}5h[4:1],6h[4:1],7h[4:1],8h[4:1],1h[4:1],2h[4:1],3h[4:1],4v3[8:1]*^7[8:1],
{16}8h/2,,,7h,3,,6h,,4,5h,,,6h/3,,7h,,8h/2,,1,7h,2,,6h/3,,4,5h,3,,6h/2,,7h/1,,
{16}1,7,1,7,2,8,2,8,
{32}2,3,4,5,8,7,6,5,1,2,3,4,7,6,5,4,
{4}Ch[4:1],8w4[16:1],8-2[16:1]*^5[16:1],8b-4[18:1],
{16}8-6[16:1]/2-6[16:1],,,,8/2^4[16:1],,,,2/1-7b[16:1]*-4b[16:1],7x,,8x,1x-5[16:1],,3x/6x,,
{16}1/3x-6[16:1],,,7x,8x-4[16:1]/3-1[16:1],,7,,8^6[16:1]/3,,5x-2b[16:1],,8b-4[16:1],,5b,,
{16}8b/1xv6[16:1],,,2x,1x-3[16:1]/8x,,8x,,1-5[16:1]/7x^5[16:1],7x,,8x,1x^3[16:1]/7x-3[16:1],,8x,,
{16}1-5-2[8:1]/7,,,6x,6x/1b-7b[16:1],,7,,1b,,,2,,6,6,,
{16}1-4[16:1]/6-4[16:1],,,,1/6^1[16:1],,,,6/2-5[16:1],3x,,7x,2/8-4b[16:1],,7x,,
{16}8-6[16:1]/1-5[16:1],,,2x,1^3[16:1]/8,,,6x,6x^4[16:1]/1-5[16:1],,,6x,1/6x^1[16:1],,3x/7x,,6-4[16:1]/3-8[16:1],,,2x,3/6,,7bx,,1bx/2bx,1bx/2bx,,3bx/8bx,,,6bx/5bx,,
{32}7bx/4bx,,,,,,,,8bx/7bx,,,,1bx,2bx,3bx,4bx,5bx/6bx,,,,2bx,,,,5bx<4[2:3],,,,,,,,
{1}C,
{4},,,7-4[16:1],
{16}7b/1-5[16:1],,,,7-5[16:1]/1b^3[16:1],,6,,7b/1b,,,8/4,,,1/3,,
{32}8/7,,,,,,,,5/6,,,,4,3,2,1,8/7,,,,,,3/4,,,,,,,,,,
{16}8-4[16:1]/3,,7,,8b-6[16:1]/2^5[16:1],,3,,8b/2b,,B5,,C,,B1,,
{32}6/5,,,,4/3,,,,1/2,,,,8/7,1/6,2/5,,2/5,,3/4,,,,2/5,,,,,2/5,,,,,
{16}8/6,,,3/4,,,1/2,,6/5,6/5,,2/4,,,8/7,,
{32}2b,,5,,3b,,8,,1b,,6,,4b,,7,,2b,3,4,5,8b,7,6,5,1b-5[16:1]*s5[16:1],2,3,4,5,6,7,8,
{1}1b,
