&title=Xterfusion
&artist=REDALiCE×t+pazolite
&first=0.38
&lv_1=1
&des_1=
&inote_1=
(125){4},
E
&lv_4=13+
&des_4=星辰凝霜
&inote_4=
(256){4},,,,,,,,,,,,,,,,{2}8h[4:1]/1h[4:1],
{4}8/1,1-4[4:1]/8-5[4:1],
{2}8/1,{4}5/4,5-8[4:1]/4-1[4:1],
{2}5/4,7-3[4:1],
2-6[4:1],8h[2:1],
,3/5h[1:3],
,B2/B3,
,B7/B6,
,C,
C,8/1h[1:3],
,B7/B6,
,B2/B3,
,C,
C,8V64[4:5],
{1},{2}C,
1V35[4:5],
{1},{2}C,
8-5[4:3]/1-4[4:3],
{1},{2}C,
Ch[2:5],
{1},,{8}2,
{4},{8}2,{4},2,
6,6,{2}6,
{8}7,{4},{8}7,{4},7,
3,3,{2}3,
{8}8/1,{4},{8}7/2,{4},6/3,
5/4,4-1[4:1]/5-8[4:1],{2},Cfh[2:1],
{4}3,6,
2,7,8/1,8/1,
2/3,2/3,5/4,5/4,
7/6,7/6,{8}8/1,8/1,{4}8/1,
5/4,5/4,6/2,{8}3/7,3/7,
{4}3/7,{8}4/8,4/8,4/8,4/8,{4}4/8,
2/6,6/2,{8}5/4,5/4,{4}5/4,
{8}7,7,2,2,{2}8-4[2:1],
,{4}8b,8b,
8b,C,6/5,6/5,
4/3,4/3,1/2,1/2,
8/7,8/7,{8}7/6,7/6,{4}7/6,
5/4,3/2,8/1,5/4,
{8}2,2,3,3,{4}2,{8}5,5,
4,4,{4}5,{8}5,5,2,2,
{2}8-4[8:1],{4}1-3[8:1],8-4[8:1],
{2}7-5[8:1],{4}8-6[8:1],1-5[8:1],
{2}2-4[8:1],5<5[2:3],
,Cfh[1:1],
,B2f/B3f/B7f/B6f,
E7,E1,
E3,{4}5h[2:1],1,
4h[2:1],8,6h[2:1],2,
3h[2:1],7,{2}8<4[2:1],
4>8[2:1],8V64[2:1],
4V28[2:1],8w4[4:3],
{1},{2}C,
{4}8,8,
2,2,4,4,
6,6,8/7,8/7,
6/5,5/6,4/3,3/4,
1/2,1/2,8/6,6/4,
4/2,2/8,5/4,3/2,
8/1,7/6,{2}5-8[4:1]/4-1[4:1],
,B1/B2/B3/B4/B5/B6/B7/B8/Ch[2:1],
,6,
,B2,
,3,
,B7,
,{4}8,8,
{2}8,{4}1,1,
{2}1,{4}E3,E7,
{2}C,Ch[4:1],
{4}4,2,{2}7,
{8}8/1,8-5[4:1]/1-4[4:1],,8/1,{2},{4}5,
7,2,{8}6/3,6/3,
,5-8[4:1]/4-1[4:1],,5/4,{4},,,6/3,
4h[4:3]/E5,E6,
E7,E8,8h[4:3]/E2,E3,
E4,E5,{8}8,5,7,4,
6,3,5,2,6b,4,7,5,
6,4,7,3,5b,4,6,3,
5,3,4,2,4b,3,5,2,
4,3,5,2,(130){4}5b,5b,
{8}5b,5b,{4}5b,1,1,
{8}1,1,{4}1,{8}8b,8b,{16},8b,{8},8b,
8b,{4}8b,{8}4,4,{16},4,{8},4,
4,{4}4,(135){16}4b,{8},{16}4b,{8},4b,
{12}5b,4b,5b,4b,{6},{16}8,{8},{16}8,{8},8,
{12}1,8,1,8,{6},(140){16}5b/4b,{8},{16}8b/1b,{8},{16}2b,6b,
{8}2b,2b,{4}2b,(145){16}8/1,{8},{16}5/4,{8},{16}6,2,
{8}6,6,{4}6,(150){8}8b/1b,8b/1b,{4}8b/1b,
{8}5/4,5/4,{4}5/4,{16}2b,3b,{8}2b,{4}2b/3b,
{16}7,6,{8}7,{4}7/6,(160){16}4b,5b,{8}4b,{16}6b,3b,{8}6b,
{16}8,1,{8}8,{16}2,7,{8}2,{12}3b,6b,3b,6b,{6}3b,
{12}7,2,7,2,{6}7,(170){48}4bx,{24},{48}5bx,{24},{16}4bx,5bx,4bx,5bx,{8}4bx,
{16}8x,1x,8x,1x,8x,1x,{8}8x,{16}2bx,6bx,2bx,6bx,{8}2b,2b/6b,
{16}7x,3x,7x,3x,{8}7,7/3,(180)1b-5[8:1],1,8-4[8:1],8,
2b-7[8:1],2,6-3[8:1],6,(190)2b-6[8:1],2,1-5[8:1],1,
8b-4[8:1],8,7-3[8:1],7,(200){4}1-5[8:1],7-3[8:1],
2-6[8:1],8-4[8:1],(210)3-7[8:1],5-1[8:1],
4-8[8:1],6-2[8:1],(220)1>4[8:1],7-3[8:1],
2-6[8:1],8<5[8:1],(230)4>1[8:1],7-3[8:1],
8>3[8:1],(240)5<1[8:1],4-8[8:1],5-1[8:1],
3-7[8:1],6-2[8:1],1-5[8:1],8-4[8:1],
2-6[8:1],7-3[8:1],(250)1>5[4:1],5<1[4:1],
1V35[4:1],5V71[4:1],1>3[4:1],3<5[4:1],
5<7[4:1],7>1[4:1],(256){2}1w5[2:1],
,Cfh[4:1],
{4}4/3,1/2,8/7,7/8,
{8}5/4,5/4-8[4:1],,4/5h[8:1],{4},5,
6/5,7/8,1/2,1/2,
{8}4/5,4/5-1[4:1],,5/4h[8:1],{4},4,
4,7b/3b,6/2-6[8:1],2b/8-4[8:1],
8/3>8[8:1],3/7,7-2[8:1]/3-6[8:1],7b/3b,
5-2[8:1]/1-6[8:1],1/5,8/4,7/3,
{8}8b/1b,8b/1b-5[8:1],,1b/8bh[8:1],{4},C/B2/B6/B3/B7,
7/8,6/5,4/3,3/4,
{8}8/1,1/8<5[4:1],,8/1h[8:1],{4},1,
1/2,3/4,6/5,{8}7/8,7/8,
,8b-4[8:1]/1b-5[8:1],,1b/8b,{4},C,
7/3,6/2,8/1-4[8:1],{8}1,8h[8:3],
{4},4,4/3-8[8:1],{8}3,4h[8:3],
{4},8,{8}7-4[8:1],7,1>5[8:1],1,
8<4[8:1],8,2-6[8:1],2,{16}A8,B8,C,B4,A4,D5,D6,D7,
{2}D8/Cfh[2:1],B2/B3/B4/B5/B6/B7/B8/B1,
,C,
,5/4,
,8/1,
,4p8[4:5],
5,5h[2:1],
,Cf,
,,,2q4[4:3],
,6,
,7p5[4:3],
,3,
,Cfh[1:2],
,B8f/B7f/B6f/B5f/B4f/B3f/B2f/B1f,
,B2/B3/B7/B6/B5/B4/B1/B8,
Cf/B4/B5/B6/B7/B8/B1/B2/B3,6/3,
7/2,8/1,
5-8[8:1]/4-1[8:1],{8}2,2,6,6,
4,4,8,8,3,3,7,7,
5,5,1,1,4,4,8,8,
2,2,6,6,8,8,4,4,
2,2,6,6,{4}1-5[8:1],7b-3[8:1],
2-6[8:1],8-4[8:1],3-6[8:1],7b-2[8:1],
4b-8[8:1],5,7b/6b,2b/3b,
{8}8b/1b,1bv4[8:1]/8bv5[8:1],,1b/8b,{4},7/2,
{2}Ch[4:1],{8}1,1,2,2,
3,3,4,4,5,5,6,6,
5-1[8:1],5,{4}5,{8}8,8,7,7,
6,6,5,5,4,4,3,3,
4-8[8:1],4,{4}4,2b-6[8:1],1b-5[8:1],
8b-4[8:1],7b-3[8:1],2b-6[8:1],1b-5[8:1],
8b-4[8:1],7b-3[8:1],{8}2,2,2,2,
{2}2h[4:1]/6h[4:1],{4}8/1,{8}8/1,8/1,
{2}8h[4:1]/1h[4:1],{4}5/4,{8}5/4,5/4,
{2}5h[4:1]/4h[4:1],{4}2/3,{8}2/3,2/3,
{2}2h[4:1]/3h[4:1],{4}6/7,{8}7/6,7/6,
{16}7x/6x,8x,1x,2x,3x,4x,5x,6x,{2}7xh[2:1],
{4},C,,{8}7,7,
6,6,5,5,4,4,8,8,
7,7,6,6,5,5,4,4,
8,8,{16}1x,2x,3x,4x,5x,6x,7x,8x,1,2,3,4,
5,6,7,8,1-5[4:1],2,3,4,{2}5/1b,
E
&lv_5=14+
&des_5=星辰凝霜
&inote_5=
(256){4},,,,,,,,,,,,,,,,{2}1h[4:1]/8h[4:1],
{4}8/1,8-4[8:1]/1-5[8:1],
{2}8b/1b,{4}3/7,3v5[8:1]/7v1[8:1],
{2}3b/7b,1-6[8:1]*-3[8:1],
5-8[8:1]*-2[8:1],B8/B1/B7/B6/B2/B3/B5/B4/Ch[1:1],
,7p3[4:3],
,B2/B1,
B6/B5,Ch[1:1],
,2q6[4:3],
,B8/B7,
B3/B4,Ch[1:1],
,E7,
E3,B7/B6/B2/B3,
B8/B1/B5/B4,8-5[4:3]/1q4[4:3],
{1},{2}C,
1-4[4:3]/8p5[4:3],
{1},{2}C,
2-5[2:1]/6-1[4:7],
,{4}2,{16}E3,B3,B4,E5,
{4},{16}2,3,4,5,{2}6h[8:7],
2h[8:3],{16}1/5,8/4,7/3,6/2,5/1,8,7,6,
{24}5,4,3,2,1,8,7,6,5,4,3,2,{2}1/5bx,
{8}B4/Ch[2:3],{4},{8}B3,{4},E3,
2,2,{2}2,
{8}B8/Ch[2:3],{4},{8}B6,{4},E5,
6,6,{2}6,
{8}8/1h[2:3],{4},{8}7,{4},6,
5,5,{16}5,4,3,2,1,8,7,6,
5/3,4,5,6,7,8,1,2,{4}7b/3h[2:1],7b,
7b,C,8-4[8:1],8b/2-6[8:1],
2b/5-1[8:1],5b/3-7[8:1],3b/8-4[8:1],8b/2-6[8:1],
2b/7-3[8:1],7b,{8}2b,2b,{4}2b/8-4[8:1],
8b/2-6[8:1],2b/7-4[8:1],7b/3-8[8:1],{8}3/5bx,5bx,
{4}5bx,{8}3bx/7bx,3bx/7bx,{4}3b-8[8:1]/7b-4[8:1],3b/7b,
1x-4[8:1]/5x-8[8:1],5b/1b,{8}3bx/7bx,3bx/7bx,3bx/7bx,{24}1,2,3,
{16}4/1bx,8bx,7bx,6bx,5bx,4bx,3bx,2bx,{2}1bx/5h[2:1],
{8}C,{4},{16}8,7,{4}6b/B1/B2,3b/B8/B7,
7b/B3/B4,C,8b/3-6[8:1],3b/7b-3[8:1],
7b/4-8[8:1],4b/1<6[8:1],1b/2-5[8:1],2b/8-4[8:1],
8b/3-7[8:1],3b/5-8[8:1],{8}5b/2x-4[8:1],2bx,{4}2bx/1-5[8:1],
1bx/8-4[8:1],7bx/8bx,4bx/7bx,{8}1bx/5bx,1bx/5bx,
{4}1bx/5bx,{8}3bx/7bx,3bx/7bx,3bx/7bx,3bx/7bx,7bx/3bx,3bx/7bx,
{4}7bx/3bx,C,{16}1b,8b,1b,8b,1b,8b,1b,8b,
{4}1h[4:1],C,{8}8-6[8:1],2-4[8:1],8-4[8:1],2-5[8:1],
8,2,8-6[8:1],8-2[8:1],8-5[8:1],8-3[8:1],{4}8-4[4:1],
{2},6b/2b,
C,Ch[2:1],
,8p4[2:1],
4p8[2:1],8<5[2:1],
5v8[2:1],{4}8-6[4:1],6-4[4:1],
4-2[4:1],2V86[2:1],{2}4,
{4}2,2,{2}Ch[1:1],
B4,B1,
B1/B8/B5/B4,B7/B6/B2/B3,
{1}Ch[4:5],
{2},{4}4/8h[4:1],4,
8/4h[4:1],8,7/3h[4:1],7,
3/7h[4:1],3,8/2,5/2,
6/3,1/8,8/7,6/5,
4/3,1/2,7/6,2/3,
8/1,5/4,{8}1,8,2,7,
{12}3,6,3,6,4,5,{16}4,3,2,1,8,7,6,5,
{4}8/4h[2:1],8-4[4:1],{2}8,
{4}B3/B2,B7/B6,{2}Ch[4:1],
{8}B6,B5,,B7/B6/B2/B3/Ch[2:1],{2},{4}E6,
B2,E8/E7,E3/E4,
{8}B5,B6,,Ch[8:3],{4},{8}E8,E7,
{4}E6,{8}B6,B3,{4}B8/B1,B5/B4,
C,{8}B2,B7,{4}B5/B4,B8/B1,
C,E1,B2/B3,B7/B6,
{16}E3,B3,B4,E5,{8}A5,Cfh[8:3],{2},{4}8/2,
6,{2}5/4-1[8:1],
{8}6,6,,6h[8:3]/4h[8:3],{2},{4}6/4,
7/3,8/2,{8}8p4[8:1],2,
,2h[4:1],,6,,6,,6,
,6,{4}1h[4:1],8b-4[8:1],{8}2,2,
{4}2h[4:1],6,1b-5[8:1],{8}7,7,
{4}7h[4:1],4,{8}1,8,1,{16}8,7,
{8}6h[4:1],4,4,4,{12}3b,7,4,7,4,7,
4,7,4,7,8,1b,4,1,4,1,4,1,
{16}4,5,6,7,8,1,2,3,4bx,7,4,7,4,7,4,7,
4,3,2,1,{24}8,7,6,5,4,3,(130){4}2h[8:1]/6h[8:1],8h[8:1]/4h[8:1],
{8}8h[16:1]/1h[16:1],7h[16:1]/5h[16:1],{4}2h[16:1]/4h[16:1],6b/2b,8b/4b,
{8}5b/3b,4b/7b,{4}8b/2b,{8}1h[16:1]/6h[16:1],6h[16:1]/1h[16:1],{16},8h[16:1]/4h[16:1],{8},7h[16:1]/6h[16:1],
2h[16:1]/3h[16:1],{4}8h[16:1]/1h[16:1],{8}8b/3b,8b/3b,{16},1b/5b,{8},2b/3b,
7b/6b,{4}8b/1b,(135){16}8b/4b,{8},{16}6b/2b,{8},3b/7b,
{12}8b/4b,4b/8b,4b/8b,4b/8b,{6},{16}1/5,{8},{16}7/3,{8},6/2,
{12}1/5,1/5,1/5,1b/5b,{6},(140){16}3b,4b,,7b,{8}6b,{16}2b,3b,
{8}2b,1b/5b,{4}3b/7b,(145){16}5/4,5/4,,6/3,{8}3/6,{16}2/7,2/7,
{8}7/2,8/1,{4}5/4,(150){8}2b/3b,2b/3b,{4}2b/3b,
{8}7/6,7/6,{4}7/6,{16}4b,5b,{8}4b,{4}2b/6b,
{16}8,1,{8}8,{4}7/3,(160){16}2b,4b,{8}2b,{16}2b,8b,{8}2b,
{16}7,5,{8}7,{16}7,1,{8}7,{12}2b,2b,2b,2b,{6}2b,
{12}6,6,6,6,{6}6,(170){48}2bx,{24},{48}2bx,{24},{16}5bx,5bx,4bx,4bx,{8}8bx,
{16}7x,7x,4x,4x,5x,5x,{8}1x,{16}5h[16:1],4h[16:1],{8}5h[16:1],3b,3b/7b,
{16}1b,8b,{8}1b,7b,6b/2b,(180){32}2b/8b,3,4,5,{8}8b,7,7,
{32}7b/1b,6,5,4,{8}1b,2,2,(190){32}2b/8b,3,4,5,{8}6/8b,7,7,
{32}7b/1b,6,5,4,{8}3/1b,2,2,(200){24}1/8,2,3,4,{12},{24}8/4,7,6,5,{12},{24}4/5,
3,2,1,{12},{24}5,6,7,8,{12},(210){8}6b/4b,1b,5b/3b,8b,
2b/4b,8b,5b/7b,1b,(220){16}1/5,2,3,4,5/1,6,7,8,
1/5,2,3,4,5/1,6,7,8,(230)1/5,4,3,2,1/5,8,7,6,
5/1,4,3,2,1/5,8,7,6,(240)5/1,2,3,4,5/1,6,7,8,
1/5,2,3,4,5/1,6,7,8,1/5,6,7,8,1/5,2,3,4,
5/1,6,7,8,1/5,2,3,4,(250){24}5/1,2,3,4,5,6,7/3,8,1,2,3,4,
5/1,6,7,8,1,2,3/7,4,5,6,7,8,1/5,2,3,4,5,6,7/3,8,1,2,3,4,
5/1,6,7,8,1,2,3/7,4,5,6,7,8,(256){16}1,8,1,8,1,8,1,8,
1,8,1,8,1,8,1,8,1,2,3,4,5,6,7,8,
{4}1/5,8/4,8-3[8:1]/4-7[8:1],8/4,
{16}2/6,1/5,8/4,7/3,6/2,5/1,{8}4/8,{4}8-4[8:1]/4-8[8:1],8/4,
3/7,2/6,1-6[8:1]/5-2[8:1],1/5,
{16}7/3,8/4,1/5,2/6,3/7,4/8,{8}5/1,{4}1-5[8:1]/5-1[8:1],1/5,
3b/7b,{16}5,6,7,8,1/5-1-5[8:3],2,3,4,{4}5/1,
3,{16}4,3,2,1,8/4-8-4[8:3],7,6,5,{4}4/8,
6,{16}8,7,{8}6,{4}4/8,7/3,
{16}3b/7b,2b/6b,{8}1b-5[8:1]/5b-1[8:1],,1b/5b,,Ch[8:1],{4},4/8,
{16}5/1,4/8,3/7,2/6,{4}1-6[8:1]/5-2[8:1],1/5,
{16}7/3,8/4,1/5,2/6,3/7,4/8,{8}5/1,{4}1-5[8:1]/5-1[8:1],1/5,
3/7,8-3[8:1]/4-7[8:1],4/8,{16}2b/6b,1b/5b,{8}4b/8b-4b[8:1],
,8b/2b-6b[8:1],,2b/6b,,{16}E8,B7,B6,B4,B3,E3,
1/B2,8,7,6,{4}5/1-5[8:1],1b/5>1[8:1],{16}8,7,6,5,
4v2[8:1],3,2,1,{4}4b/8-4[8:1],8b/4<8[8:1],{16}1,2,3,4,
5v7[8:1],6,7,8,{4}5b/1,{16}1x,2x,8x,7x,1x,2x,8x,7x,
2,3,7,6,2,3,7,6,4,5,4,5,4,5,4,5,
3,6,3,6,3,6,3,6,{2}3b<3[4:15],
,Ch[2:1],
,B5/B4,
B7/B6,B8/B1,
B2/B3,5<5[4:7],
,B5/B4,
B3/B2,Cfh[1:1],
{1},{4}8,
8,{2}8h[4:1],
{8}2,2,,4-8[4:1],{2},{4}6,
6,{2}4h[4:1],
{8}7,7,,4-8[4:1],{2},Cfh[2:1],
B2/B3/B4/B5/B6/B7/B8/B1,
Ch[4:1],B2/B5/B6/B7/B8/B1/B3/B4f/Cfh[4:1],
E8/E4/E2/E6/Ch[4:1],{16}1/5bx,2,3,4,5,6,7,8,
1/5bx,2,3,4,5,6,7,8,{24}1/5bx,2,3,4,5,6,7,8,1,2,3,4,
5/1bx,2,3,4,5,6,7,8,1,2,3,4,{2}1b/5bw1b[4:1],
A8/A1/A2,{8}2-6[8:1],2,7-3[8:1],7,
1-5[8:1],1,{16}5,6,7,8,{8}1,1,4>1[8:1],4,
{16}8b>3[8:1],7,6,5,{4}4b,{8}7-3[8:1],7,1-5[8:1],1,
8-4[8:1],8,{16}4,3,2,1,{8}8,8,5<8[8:1],5,
{16}1b<6[8:1],2,3,4,{4}5b,{16}2,3,4,5,6/2,7,8,1,
{4}2/6h[4:1],{16}8,1,2,3,4/8,7,6,5,4/8,3,2,1,
{4}8/4h[4:1],{16}8,7,6,5,{4}4b/2b,7b/5b,
{8}8b/1b,8b/1b-5b[8:1],,1b/5b-1[8:1],{4},Ch[8:1],
{2}5-8[8:1]/4-1[8:1],{8}7-4[8:1],7,1-6[8:1],1,
8-4[8:1],8,{16}4-6[8:1],3,2,1,{8}8,8,7<4[8:1],7,
{16}4b<7[8:1],3,2,1,{4}8b,{8}1-6[8:1],1,8-4[8:1],8,
2-5[8:1],2,{16}5-2[8:1],6,7,8,{8}1,1,4>1[8:1],4,
{16}8b>3[8:1],7,6,5,{4}4b,{8}7-4[8:1],4-7[8:1],{4}7b,
{8}1-5[8:1],5-1[8:1],{4}1b,{8}8-4[8:1],4-8[8:1],{4}8b,
{8}3-1[8:1],1-4[8:1],{4}3b,{8}8,8,4/8,4/8,
3/7,7/3,{16}7,6,5,4,{8}3v8[8:1],3,1,1q5[8:1],
1,7v4[8:1],7,3,3v6[8:1],3,5,5-8[8:1],
5,3,3-1[8:1],3,{16}8,7,6,5,4,3,2,1,
8/4,3/7,2/6,1/5,8/4,7,6,5,4/8,7/3,6/2,5/1,{24}4/8,3,2,1,8,7,
6,5,4,3,2,1,{32}8,7,6,5,4,3,2,1,{2}8h[2:1],
1bh[4:1],{16}7,8,7,8,7,8,7,8,
6,1,6,1,6,1,6,1,5,2,5,2,5,2,5,2,
4,3,4,3,4,3,4,3,4,3,4,3,4,3,4,3,
4,5,6,7,{4}8h[8:1],{12}3b,4b,2b,6b,4b,7b,
4b,8b,3b,1bw5b[2:1],2b,8b,{2}1b,
E
