&title=far in the blue sky...
&artist=Saikoro
&first=-0.08
&des=CupLid
&lv_5=5dan
&inote_5=(148){4},,,,4,
4,4,4,
4,4,4,4,
5,5,5,5,
5,5,5,5,
3,3,3,3,
6,6,6,6,
2,3,7,6,
2,7,{16}1-5[8:1],8,1,8,{4}1b,
{8}7,{16}4,4,{8}6,B3,{16}7,5,,5,{4}6,
{8}3/7,{16}4,4,{8}6,B3,{16}7,5,,5,{4}6,
{8}3/7,{16}4,4,{8}6,C,{16}7,5,,5,{4}6,
{8}3/7,{16}4,4,{8}6,C,{16}7,5,,5,{4}6,
{8}2/6,{16}5,5,{8}3,B6,{16}2,4,,4,{4}3,
{8}6/2,{16}5,5,{8}3,B6,{16}2,4,,4,{4}3,
{8}6/2,{16}5,5,{8}3,C,{16}2,4,,4,{4}3,
{8}6/2,{16}5,5,{8}3,C,{16}2,4,2,4,1,5,1,5,
2b,4,3,5,{8}4/6,7,{16}3,5,,5,{8}2,6,
3/5,{16}6,6,{8}4,7,{16}3,5,,5,{8}2,8,
{16}7,5,6,4,{8}5/3,2,{16}6,4,,4,{8}7,3,
6/4,{16}3,3,{8}5,2,{16}6,4,,4,{8}7,1,
{16}2,4,3,5,{8}4/6,7,{16}3-5[8:1],5,,5,{4}3,
{8}8-6[8:1],{16}5,5,{8}8,4,{16}3-5[8:1],5,,5,{4}3,
{16}7,5,6,4,{8}5/3,2,{16}6-4[8:1],4,,4,{4}6,
{8}1-3[8:1],{16}4,4,{8}1,5,{16}6-4[8:1],4,,4,{4}6,
{16}2-4[8:1],8,1,7,{8}2-8[8:1],6,2-5[8:1],{16}5,5,{8}2,6,
1-7[8:1],{16}7,7,{8}1,6,{16}2-6[8:1],8,,8,{4}2,
{16}7-5[8:1],1,8,2,{8}7-1[8:1],3,7-4[8:1],{16}4,4,{8}7,3,
8-2[8:1],{16}2,2,{8}8,3,{16}7-3[8:1],1,,1,{4}7,
{16}2-5[8:1],1,3,8,{8}2-8[8:1],6,2q6[8:1],{16}7,7,{8}2,8,
1-5[8:1],{16}6,6,{8}1,7,{16}2>5[8:1],1,,1,{8}2,8,
{16}7-4[8:1],8,6,1,{8}7-1[8:1],3,7p3[8:1],{16}2,2,{8}7,1,
8-4[8:1],{16}3,3,{8}8,2,{16}1,5,1,5,1,5,1,5,
{4}2b/6,{8}3/5,2h[16:1],{4}4,5/3,
4,{8}5/3,2h[16:1],{16}6,5,,5,{4}7,
{16}7,5,6,4,{8}5,2h[16:1],{4}4,{8}5/3,{16}2,4,
{8}3,5,5/3,2h[16:1],{16}6,5,,5,{4}7,
{16}2,4,3,5,{8}4,7h[16:1],{4}5,6/4,
5,{8}6/4,7h[16:1],{16}3,4,,4,{4}2,
{16}2,4,3,5,{8}4,7h[16:1],{4}5,{8}4/6,{16}7,5,
{8}6,2-8[16:3],{16},8-6[16:3],,,{8}6qq5[4:1],5,,,8b>6[8:5],
8,8,8,8,8,8,8,
7,7,7,7,7,7,7,7,
6b>1[8:5],6,6,6,6,6,6,6,
5,5,5,5,5,5,5,5,
1b<3[8:5],1,1,1,1,1,1,1,
2,2,2,2,2,2,2,2,
3b>5[8:5],3,3,3,3,3,3,3,
4,4,4,4,{16}4,5,4,5,4,5,4,5,
{8}B3,B6,,E6,,B4,B5,{16}D3,D7,
,,,,,,,,,,,,,,,,,,{8}E6,
{16},B3,,B7,{8}E1,B2,{16},E6,,E4,
,,,,,,,,,,,,,,,,{8}B6,
B3,,E4,,B5,B4,{16}D7,D3,
,,,,,,,,,,,,,,,,,,{8}E5,
{16}D3,A3,,D8,{8}A7,A1,C,{16}E7,E4,
,,,,,,,,,,,,,,,,{8}6b/3b,
3,{16},3,,4,,,{8}5,4,{16}5,4,
,,{8}3,{16},5,,4,{8}3,4,{16},5,,6,
,,{8}3,{16},3,,4,,,{8}6,5,{16}6,5,
,,{8}5,{16},5,,4,{8}4,6,{16},5,,6,
3,4,3,4,3,5,3,5,4,6,4,6,5,6,5,6,
3,4,2,5,3,4,2,6,4,5,3,7,5,6,4,8,
2,2,7,7,1,1,6,6,3,3,8,8,2,2,5,5,
1x,1x,1x,1x,1x,1x,1x,1x,1x/8x,1x/8x,1x/8x,1x/8x,8bx/1bx,8bx/1bx,8bx/1bx,8bx/1bx,
{8}7b/2b-5[8:1],5V37[4:1],{16}6x,6,,7,{8}7>2[8:1],6,6x,{16}5,4,
{8}6-4[8:1],7,{16}1xq5[8:1],1,,8,{8}8,6,{16}7x-1[8:1],5,6,5,
{8}7-4[8:1],4V62[4:1],{16}3x,3,,2,{8}2<7[8:1],3,3x,{16}4,5,
{8}4-8[8:1],6,{16}1x<5[8:1],1,,2,{8}2-6-4[4:1],3,{16}7x,7,,8,
{8}8-4[8:1],4V62[4:1],{16}3x,3,,2,{8}2<7[8:1],3,3x,{16}4,5,
{8}3-5[8:1],2,{16}8xp4[8:1],8,,1,{8}1,3,{16}2x-8[8:1],4,3,4,
{8}2-5[8:1],5V37[4:1],{16}6x,6,,7,{8}7>2[8:1],6,6x,{16}5,4,
{8}5-1[8:1],3,{16}8x>4[8:1],8,,7,{8}7-3-5[4:1],6,3x,2,
1b-5[8:1],2,1x/8x-6[8:1],7,8/4-2[8:1],3,{16}4x/1x-5[8:1],8,7,6,
{8}1/5,7,{16}8x-4[8:1],7,6,5,{8}4/8<5[8:1],6,8x>3[8:1],2,
4/8-4[8:1],6,8x/1x-3[8:1],2,1/5-7[8:1],6,{16}5x/8x-4[8:1],1,2,3,
{8}8/4,2,{16}1x-5[8:1],2,3,4,{8}5/1>4[8:1],3,1x<6[8:1],7,
1/5-1[8:1],4,5x/8x-6[8:1],7,8/4-2[8:1],3,{16}4x/8x-4[8:1],7,6,5,
{8}4/8,6,{16}1x-5[8:1],8,7,6,{8}5/1<6[8:1],7,1x>4[8:1],3,
1/5-1[8:1],7,5x/6x-8[8:1],7,6/2-4[8:1],3,2x/7x,6,
6b/2b,5b/3b,2,{16}2,6,3,5,2,6,3,5,2,6,
{8}3b-5[8:1],{16}2,1,{8}3-1[8:1],8,3/7-4[8:1],6,7/2,{16}3,3,
{8}8-4[8:1],1,8/2,{16}3,3,{8}1-5[8:1],2,{16}3/1,3,,4,
{8}6-4[8:1],{16}7,8,{8}6-8[8:1],1,6/2-5[8:1],3,2/7,{16}6,6,
{8}1-5[8:1],8,1/7,{16}6,6,{8}8-4[8:1],7,{16}6/8,6,,5,
{8}3<6[8:1],6-3[8:1],3V51[4:1],7,8,7,6-4[8:1],{16}7,8,
{8}6-8[8:1],2-5[8:1],6,2,7,{16}6,4,5,3,7,1,
{8}6>3[8:1],3-6[8:1],6V48[4:1],2,1,2,3-5[8:1],{16}2,1,
{8}3-1[8:1],7-4[8:1],3,7,2,{16}3,3,7,4,5,2,
{8}6b-4[8:1],{16}7,8,{8}6-8[8:1],1,6/2>5[8:1],3,2/7,{16}6,6,
{8}1q5[8:1],8,1/7,{16}6,6,{8}8>4[8:1],7,{16}6/8,6,,5,
{8}3-5[8:1],{16}2,1,{8}3-1[8:1],8,3/7<4[8:1],6,7/2,{16}3,3,
{8}8p4[8:1],1,8/2,{16}3,3,{8}1<5[8:1],2,{16}3/1,3,,4,
{8}6>3[8:1],3-6[8:1],6V48[4:1],2,1,2,3-5[8:1],{16}2,1,
{8}3v8[8:1],7<4[8:1],3,7,2,{16}3,5,4,6,2,8,
{8}3<6[8:1],6-3[8:1],3V51[4:1],7,8,7,6,{16}7,8,
{8}6b/2,6/2b,{16}3,5,,4,7,2,6,4,8,3,5,1,
7b,5,6,4,{8}5/3,2,{16}6,4,,4,{8}7,3,
6/4,{16}3,3,{8}5,2,{16}6,4,,4,{8}7,1,
{16}2,4,3,5,{8}4/6,7,{16}3,5,,5,{8}2,6,
3/5,{16}6,6,{8}4,7,{16}3,5,,5,{8}2,8,
{16}7,5,6,4,{8}5/3,2,{16}6-4[8:1],4,,4,{4}6,
{8}1-3[8:1],{16}4,4,{8}1,5,{16}6-4[8:1],4,,4,{4}6,
{16}2,4,3,5,{8}4/6,7,{16}3-5[8:1],5,,5,{4}3,
{8}8-6[8:1],{16}5,5,{8}8,4,{16}3-5[8:1],5,,5,{4}3,
{8}7b,{16}6,5,{8}7,4,{16}7,5,6,5,{8}7,4,
2,{16}3,4,{8}2,5,{16}2,4,3,4,{8}2,5,
7,{16}6,5,{8}7,4,{16}7,5,6,5,{8}7,4,
2,{16}3,4,{8}2,5,{16}2,4,3,4,{8}2,5,
7,{16}6,5,{8}7h[8:1],8,{16}2,6,3,5,{8}4,3,
2,{16}3,4,{8}2h[8:1],1,{16}7,3,6,4,{8}5,3,
6,{16}7,8,{8}6h[8:1],5,{16}3,7,2,8,{8}1,2,
3,{16}2,1,{8}3h[8:1],4,{16}6,2,7,1,{8}8w4[8:1],7/1,
{1}Cf/B1/B7/B6/B2/A2/A6/E7/E2,
E
