&title=インフェルノシティ
&artist=Ponchi♪ feat. はぁち
&first=-0.45
&des=FlyingLine
&lv_4=12+
&lv_5=14+
&inote_4=(215)
{1},,
{4}7h[1:1],,,1h[4:5],,,,,8h[1:1],,,2h[1:1],,,,
8x-6-4-2-8b[1:2],
{1},,
{4}4,3,27,6,5/1s5[8:3],,
(430),,,
(215){8}4x/7x,,8,2,8,,1,7,1,,8,2,7,3,6,4,5,,1,7,2,6,3,5,
{4}4-1[4:1],,5-8[4:1],,
{8}2,,1,7,1,,8,2,8,,1,7,2,6,3,5,4,,8,2,7,3,6,4,
{4}5<8[4:1],,4>1[4:1],,7,68,1,27,
{8}3,8,,8,2h[4:1],,,,
1,,38,,2,,16,,7,8,,8,7-4[8:1],,1,,
2,,31,,8,,72,,6,1,,1,7h[4:1],,,,
{16},
{4}2x-4[8:1],8x-6[8:1],,
{16}1xp7-5b[8:5],,,
{1},
{8}8,4,7,,3,6,2,,5,1,,1,72,,84,,
3,7,2,,6,1,5,,8,4,,4,25,,37,,
8,2,8,,1,7,1,,6,2,7,3,8-4[4:1],,4-7[4:1],
(430){4},,
(215){8}2x,,2x/8x,7,,1,6,2,35,,17,,46,,28,,
17,8,2,6,,3,5,4,,6,1,7,28,,46,,
52,3,7,1,,8,4,6,,3,5,2,1/6b,,,,
27,8,1,27,,84,,26,,7,3,8,4h[4:1],,7h[4:1],,
{1}1h[2:1],A7/B7/C/B3/A3,
{4}1x>7[4:3],,,7x>7b[1:1],,,,,,18,27,36,
{8}4xh[2:1]/5,,,6,6,,7v4[4:1]/4,,3,,2,,
5xh[2:1]/1,,,2,2,,3v8[4:1]/5,,,,6,,
{4}7b/1,2,3,4,5,6,
{8}17,,,7-5-1[8:7],1-3-7[4:3],,,,,,,,
(430){2},
(215){4}84,73,62,51,48,,26,
{8}7x<4[8:3],,,4x>1[8:3],,,1x<6[8:3],,,
6x>7b[8:7],,,,,5x,,4x>4[1:1],,
{4},,,,,48,37,
2qq5[8:5]/6,,,
(430){4},
(215){1},
{8}7b,2,8,1-6[8:1]*-4[8:1],,1,,,
2,7,1,8-3[8:1]*-5[8:1],,8,,,
8,2,7,1-6[8:1]*-4[8:1],,1,,,
78,,34,,12,,56,,
73,,8,2,,2,8,1,7h[8:9],,,B1,,B3,,B5,,
2x-6[4:1],,8xV64[2:1],8x,,,1xs5b[8:3],1x,,,,,
6,4,7,3,8,,28,3,,7,4,6,46,,53,3,6,2,27,,
8,1,7,2b,,6b/4b,,8b/2b,,
1,7,2,6h[4:1],,3h[4:1],,7h[4:1],,4h[4:1],,
8h[4:1],,3,3h[8:3],,7h[8:1],,,
26,,37,,
8x<5[4:1],,,4x>1[4:1],,,7x<4[4:1],,,3x>8[4:1],,,,,,
6,,6,2,,8b/4b,,
7,1,8,2,1-6[8:1]*-4[8:1],,1,,
2,8,1,7,8-3[8:1]*-5[8:1],,8,,,
21,,65,,87,,43,,
26,,1,7,,7,1,8,2h[8:9],,,B8,,B6,,B4,,
7v4[4:1],,1,1,,2xV84b[2:1]/5xV73b[2:1],,,,,,,,
25,,B6/B7/B8/B1/Cf,,,17,,35,,6,4,,37,37,,,
2,8,1,7,,7,1,,35,,28,,16,16,,
{16},,,7,,8,,1,,,
(430){8},
(215){6}1x/8x,2x/7x,3x/6x,2x/1x,3x/8x,4x/7x,
8x/1x,7x/2x,6x/3x,7x/8x,6x/1x,
{8}5bx/2bx,,,,C,,,,E2/E8,,,E7/E3,,,E6/E4,,Chf[4:3],
{2},,,{8},,8,8,1,1,7,7,2,2,6,6,3,3,5b/4b,,,
(430){8},,
(215){8}27,,1,8,27,,8,1,27,,8,2,7,3,6,4,5,,1,7,2,6,3,5,
4,6,4,6,3,7,2,8,
1,,8,1,72,,1,8,72,,1,7,2,6,3,5,4,,8,2,7,3,6,4,
5,3,5,3,6,2,7,1,
8hx[8:3],,,2hx[1:1],,,6hx[4:3],,,,,,,,,Cf,,
3x/7x,4,5,2x/6x,5,4,3x/7x,4,5,2x/6x,5,4,
3b/7b,3b/7b,4b/8b,4b/8b,
&inote_5=(215)
{1},,
{8}6,5,4,3h[8:3],,,6,5,4,3h[8:7],,,,,,,5,4,3,2h[8:3],,,7,6,5,4h[8:5],,,
5-1[16:1],,5x,,
4/1x,,4,1x-5<7-3>1[8:9],4,,4,,4,,4,,4,,4,,
{16}8,4,8,4,7,3,7,3,6,2,6,2,5,1,5,1,
{16}4,3,2,1,8,7,6,5,{32}4-8[8:1],,,,,,4bx,,
(430){16}Cf,,,,
(215){8}2x,,1-5[8:1],7,1,,7,5,4h[4:1]/6-8[8:1],,6-4[8:1],3,6-2[8:1],2,6,1,
7,,7/1-5[8:1],1,7-4[8:1],7,2>5[8:1],2,8x,,
{16}8,7,6,5,1,2,3,4,7,6,5,4,
{8}1x,,4-8[8:1],2,4,,2,8,7h[4:1]/1-3[8:1],,1-7[8:1],7,1-5[8:1],6,1,6,
2,,2/8-4[8:1],8,2v5[8:1],2,7<4[8:1],7,1x,,
{16}1,2,3,4,8,7,6,5,2,3,4,5,
{8}8x,7,16,,5x,4,36,,28,1-5[8:1]/7,,17,8,,8-4[8:1],7,
18,2x,3,,4x,5,36,,71,8-4[8:1]/2,,8,2-7[8:1]*-5[8:1],,2,,
6,5x,47,,3x,4,25,,68,1-3[8:1]/7,8-4[8:1],1,8,,2,,
{16}7x,6,5,4,8x,1,2,3,5x,4,3,2,1/3x-7[8:1],8,7,6,
{1}5pp5b[2:1]*qq5b[2:1],
{8}1-5[8:1],1,2-4[8:1],2,{16}8,7,6,5,2,3,4,5,
{8}8-4[8:1],8,1-3[8:1],1,{16}7,6,5,4,3,2,1,8,
{8}2-5[8:1],2,1-6[8:1],1,{16}2,3,4,5,8,7,6,5,
{8}8-4[8:1],8,7-5[8:1],7,{16}1,2,3,4,5,6,7,8,
{8}6-2[8:1],6,4-1[8:1],4,{16}5,6,7,8,4,3,2,1,
{8}7-3[8:1],7,1v4[8:1],1,{16}5,6,7,8,1,2,3,4,
(430){8}5,6,
(215){8}3/7-4[8:1],,17,8>3[4:1],,84,5,6,7-3[8:1],,7/2-5[8:1],,2/8-4[8:1],,
1h[1:2],,B5,E8,B3,C,,B8,E6,B4,,C,E4,B7,E3,,C,,
6h[2:3]/E3,B4,E2,C,,B1,E4,E8,,E3,E5,B8,Cf,,,,
27,1-5[8:1],8,1x/7-4[8:1],,7x/2>5[8:1],,2x/8z4[8:3],,2,1,8,7h[4:1],,6h[4:1],,
{2}5-7[4:3],1-7[4:1],{32}A7,B7,C,B3,A3,,,,{4},,,
{16}71,2,3,4,5,6,7,8,1,2,3,4,58,7,6,5,4,3,2,1,8,7,6,5,4,3,2,1,8,,,,,2,3,4,
{8}5/8-4[8:1],,8/2-5[8:1],,27,,
{16}8x,7,6,5,4,3,2x,1,8x,7,6,5,4/1x,2,3,4,5x,6,7,8,1x,2,3,4,5/1x,8,7,6,5,4,3x,2,1x,8,7x,6,5/2x,3,4,5,6,7,8,1,
{4}2x-6[8:1],2x/8h[4:1],7h[4:1],6h[4:1],5h[4:1],4h[4:1],3h[4:1],2,
{16}1,2,1,2<2[16:13],
{1}8v2[4:1],(430){4},,
(215){8}12,12,83,83,74,74,5qq2[8:3]/6pp1[8:3],,,,,,8x/3x,,
{16}2/6bx,3,4,5,6,7,8/4bx,1,2,3,4,5,6/1bx,8,7,6,5,4,3/7bx,2,1,8,7,6,5/1bx,,
{8},6/2-5[8:1],,82,7-4[8:1],,7/1-5[8:1],,1/8-4[8:1],,8/2>5[8:1],,5,6,7,
{16}1x,2,3,4,1x-5[2.372093023255814##0.1395348837209302],8,7,6,
{4}1h[8:13],,,,,,(430){4},,,
(215){8}1b/7v4[8:1],8-2[16:1],7,8-5[8:1],,38,,
7/1-5[8:1],8/2-4[8:1],1-7[8:1],2,1-4[8:1],,16,,
7/2v5[8:1],1/8-4[8:1],2-8[8:1],8,2-4[8:1],,25,,7,
{32}1b,2x,3x,4x,,,,,1-5[8:1]/8b,7x,6x,5x,,,,,
{16}7-3[8:1]/1b,,,,1w5[8:1]/7b,,,,{8}1b,,
7/2-8[8:1],6,2-4[8:1],7,2-6[8:1],8,2,1>4[8:1],8,7/1<6[8:1],,1-5[8:1],,1,,
{16}47,,,6,5,6,5,
{8}6-2[8:1],7v4[8:1],86,
{32}7,,Cf,,(430){8},
(215){8},,,,52,3,46,7,2/8-4[8:1],,2-5[8:1],1,7-4[8:1],8,1-5[8:1],8,7-3[8:1],6,1-4[8:1],8,6-1[16:1],,,,
{16}1,3,1,3,8,3,{8}8,,7-4[16:1]/3-8[16:1],48,37,,5,16,
{16}7,8,7,8,6,5,4,3,2,1,84,,,,1,2,1,2,1,8,7,6,
{8}15,3-8[8:1]/7-4[8:1],,37,,,
{16}85,1,2,3,48,,,,
1h[4:1]/8x,7,6,5,4,,8h[4:1]/2x,3,4,5,6,,
1h[4:1]/7x,6,5,4,3,,8h[4:1]/2x,3,4,5,6,7,8,1,2,3,4,(430){8},
(215){8}8<6[8:1],,8,4-8[8:1]*-1[8:1],,4b,,
7v4[8:1],1-5[8:1],7-5[8:1],1,7-1[8:1],,7b/2,,
8v5[8:1],2-6[8:1],8-2[8:1],2,8-6[8:1],,8b/3,,2,
{32}8b,7x,6x,5x,,,,,8-4[8:1]/1b,2x,3x,4x,,,,,
{16}2-6[8:1]/8b,,,,8w4[8:1]/2b,,,,{8}8b,,
2/7-1[8:1],3,7-5[8:1],2,7-3[8:1],1,7,8<5[8:1],1,2/8>3[8:1],,8-4[8:1],,8,,
{16}52,,3-8[8:1],4,3,4,
{8}3-6[8:1],,3/1<7v5[16:7]*>3v5[16:7],,1,,,,,
{16},,{8}5w1[8:1],,{80}5b,,E6/E5,B5,B6/B4,,B7/B3/Cf,,E8/E3,B1,
{8},,8-5[8:1]/2-5[8:1],,28,,4,36,,8,7/1h[8:3],,,
{16}7x,8,1,2,3,4,{8}5/1-5[8:1],,18,7<4[8:1],,7/2v5[8:1],,2/8-4[8:1],,8/2-5-7[4:1],2,,
{16},,,8,,7,,6/1-5[16:1],,,(430){8},
(215){6}7x-4[16:1],2x-5[16:1],8x-4[16:1],3x-6[16:1],7x-4[16:1],1x-5[16:1],8x-4[16:1],2x-5[16:1],6x-3[16:1],4x-1[16:1],7x-4[16:1],
{4}8bx>8[4:7],,B1,,{8}B5,,,B7,,,8xqq8b[4:3],,Ch[16:27],
{2},,,{16},,,,{32}1x,2,3,4,5,6,7,8,1x,2,3,4,5,6,7,8,1x,2,3,4,5,6,7,8,1x,2,3,4,5,6,7,8,1x,2,3,4,5,6,7,8,1x,2,3,4,5,6,7,8,
1x-5[8:1],,,,,,1bx,,(430){2}Cf,
(215){8}7x,,8-4[8:1],2,8,,2,4,5h[4:1]/3-1[8:1],,3-5[8:1],6,3-7[8:1],7,3,8,
2,,2/8-4[8:1],8,2-5[8:1],2,7<4[8:1],7,1x,,
{16}1,2,3,4,8,7,6,5,2,3,4,5,
{8}8x,,5-1[8:1],7,5,,7,1,2h[4:1]/8-6[8:1],,8-2[8:1],2,8-4[8:1],3,8,3,
7,,7/1-5[8:1],1,7v4[8:1],7,2>5[8:1],2,8x,,
{16}8,7,6,5,1,2,3,4,7,6,5,4,
{8}1x,2h[8:3],,5x,6h[8:7],,,3xh[8:5],,,,,,,,B1/B3/B5/B7/Cf,(430){4},
(215){8}45,36,27,18,{16}7,8,6,1,5,2,4,3,1,2,8,3,7,4,6-8-4-2[4:1],5,
{8}7b,5b,1b,Cf,
