&title=ALICE IN VOODOOLAND
&artist=Roughsketch
&wholebpm=180
&des=1就
&first=0
&lv_1=1
&lv_2=3
&lv_3=6
&lv_4=10
&lv_5=12
&inote_1=
(180){1},,,,,,,
,,,,,,,,
4,,3,2b,
1,1,8,8,7b,7,6,6,
5,,5,,4,,4,,
2h[1:2],,,,8h[1:2],,,,1h[1:2],,,,7h[1:2],,,,
1,,1,,3,3,4,4b,
5,5,6,6,7,7,8,8,
1,1,2,2,3,3,4,,
5h[1:1],,7h[1:1],,1h[1:1],,3h[1:1],,
4,4,3,3,2,2,1,18,
7V53[4:15],,,,,,E
&inote_2=
(180){1},,,,,,,
,,,,,,,,
5,,7,{2}1,1b,
1,,2,2,2,,3,3,
3b,,4,4,
4,,5,5,
6,,6,,7,,8,8,1,,1,,2,,3,3,
4h[1:1],,,,5h[1:1],,,,
6h[1:1],,,,7,,,,
1-4[4:4],,,,5-8[4:4],,,,
1-4[4:4],,,,5-8[4:4],,,,
1,,1,,2,,2,,3,3,4,4,5,,
6b,6b,
4,4,4,,2,2,2,,8,8,8,,6,6,6,,
5,5,5,,3,3,3,,7,7,7,,1,1,,,
8,8,7,7,1,1,2,2,5,5,6,6,4,4,3,3,
5,5,5,,4,4,3,,6,6,7,8,1,2,3,,
4-1[1:1],,,,8-5[1:1],,,,4,,,,,,,,E
&inote_3=
(180){1},,,,,,,
2h[1:2],,,,5h[1:2]/6h[1:2],,,,{4}
4V61[4:5],,,,,,,,8-5[2:1],,,,4,,4b/5b,,
6,6,4,4,7,7,4,4,7,7,5,5,8b,8,1b,1,
2,2,5,5,3,3,5,5,2,2,4,4,3b,3,6b,6,
12,,12,,78,,78,,12,,2,,8,8,8,,
56,,56,,34,,34,,56,,6,,1,1,1,,
7V51[4:5],,,,,,,,2V48[4:5],,,,,,,,
7V15[4:5],,,,,,,,2V84[4:5],,,,,,,,
4h[1:1],,,,5h[1:1],,,,3h[1:1],,,,6h[1:1],,,,
2h[1:1],,,,8h[1:1],,,,1h[1:1],,,,7h[2:1],,,,
1,1,1,1,7,7,7,7,2,2,2,2,8,8,8,8,
3,3,5,5,4,4,6,6,1,,,,8b/1b,,18,18,
2,2,8,2,7,7,1,7,4,4,6,4,5,5,3,5,
1,1,7,1,8,8,2,8,3,3,5,3,6,6,4,6,
1,1,7,1,8,8,2,8,4,4,6,4,5,5,3,5,
2,2,8,2,7,7,1,7,3,3,5,5,5,,,,
3,4,3,4,2,5,3,4,7,4,7,4,6,5,7,4,
7,8,7,8,6,1,7,8,1,2,1,2,8,3,8,8,
3,4,3,4,2,5,2,,7,4,7,4,6,5,6,6,
34,34,45,45,56,56,78,78,81,81,12,12,
1pp2[2:1]/8qq7[2:1],,,,{1},,45,,4b/5b,,,,E
&inote_4=
(180){1},,,,,,,
{2}8-5[4:6]*-3[4:6],,,,
3V58[4:6],,,,
8-5[4:2],,2p3[4:2],,
6v8[4:6]/4<8[4:6],,,,{8}
4>5[4:6],,,,,,,,
,,,,,,,,
6q3[4:2],,,,,,,,
45,,,,27,,27,,
4-2[8:1],,7-5[8:1],,4-2[8:1],,7,,
6-8[8:1],,1-3[8:1],,6-8[8:1],,1,,
2-4[8:1],,5-7[8:1],,2-4[8:1],,5,,
2b,,7b/8b,,6b,6,5b,,
3-1[8:1],,8-6[8:1],,3-1[8:1],,8,,
5-7[8:1],,2-4[8:1],,5-7[8:1],,2,,
1-3[8:1],,6-8[8:1],,1-3[8:1],,6,,
1b,,7b/8b,,3b,3,4b,,
5/6h[4:7],,7,,8,,1,,2,,1,,8,,7,,
4/3h[4:7],,2,,1,,8,,7,,8,,1,,2,,
5/7h[4:7],,8,,1,,2,,3,,2,,1,,8,,
4/2h[4:7],,1,,8,,7,,6,,7,,8,,1,,
7h[4:7]/2h[4:3],,,,,,,,5h[4:7],,,,,,,,
4h[4:7],,,,,,,,2h[4:3],,,,,,,,
3h[4:7]/6h[4:3],,,,,,,,1h[4:10],,,,,,,,
8h[4:6],,,,,,,,,,,,,,,,
2-5[2:1],,,,8,,8,,8-4[2:1],,,,1,,1,,
1-5[2:1],,,,7,,7,,7-4[2:1],,,,3,,3,,
3-8[2:1],,,,6,,6,,6-1[2:1],,,,2,,2,,
2-5[2:1],,,,7,,7,,7-4[2:1],,,,1h[2:1],,,,
5,,5,,3,,3,,7,,7,,1,,1,,6,,6,,4,,4,,8,,8,,2,,2,,
1,8,1,8,2,2,7,7,4,5,4,5,3,3,6,6,
,,,,,,,,
8-6[8:1]/1-3[8:1],,,,5-7[8:1]/4-2[8:1],,,,
1-3[8:1],,8-4[8:1],,1-5[8:1],,8-6[8:1],,
2-4[8:1],,1-5[8:1],,2-6[8:1],,1-7[8:1],,
2-4[8:1],,5-7[8:1],,1-3[8:1],,6-8[8:1],,
3-1[8:1],,7-5[8:1],,2-4[8:1],,7,,
8-6[8:1],,1-5[8:1],,8-4[8:1],,1-3[8:1],,
7-5[8:1],,8-4[8:1],,7-3[8:1],,8-2[8:1],,
7-5[8:1],,4-2[8:1],,8-6[8:1],,3-1[8:1],,
6-8[8:1],,2-4[8:1],,7-5[8:1],,2,,
1-6[8:1],,8-3[8:1],,2-5[8:1],,7-4[8:1],,
3-8[8:1],,6-1[8:1],,2-5[8:1],,7,,
8-3[8:1],,1-6[8:1],,7-4[8:1],,2-5[8:1],,
1-6[8:1],,3-8[8:1],,7-4[8:1],,2,,
2-5[8:1],,8-3[8:1],,6-1[8:1],,4,,
7-4[8:1],,1-6[8:1],,3-8[8:1],,5,,
8-3[8:1],,6-1[8:1],,4-7[8:1],,2q5[8:5],,
,,,,,,,,
2,6,5,6,2,6,5,6,2,5,4,5,2,5,3,3,
7,3,4,3,7,3,4,3,7,4,5,4,7,4,6,6,
2,6,5,6,2,6,5,6,2,5,4,5,2,5,3,3,
7,3,4,3,7,3,4,3,7,4,5,2,3,4,5,6,
1,7,8,7,1,7,8,7,2,8,1,8,2h[4:1],,,,
8,2,1,2,8,2,1,2,7,1,8,1,8-5[8:1],,,,
1,1,1,7,7,7,2,2,18,18,27,27,36,36,45,45,
3,7,2,6,3,7,2,6,1s5[2:1],,,,,,,,{1}
4qq1[4:15]/8qq5[4:15],,,,,,,,,E
&inote_5=
(180){1},,,,,,,
{2}
2v5[4:6]/3V15[4:6],,,,
8-5[4:6]/5-3[4:6],,,,
1-4[4:2]/4-1[4:2],,8V64[4:2]/6V82[4:2],,
6-2[4:2],2<3[1:1],,,
{8}8<1[8:13],1,,2,,3,,4,,5,,6,,7,,8,
1h[2:1],8,,7,7,,,17,
1-4[8:1]/7-4[8:1],,1b/7b,,8-5[8:1]/4>8[8:1],,,,
5-8[8:1]/2,,3V14[8:3],,8-5[8:1]/3,,8,,
4-1[8:1]/7,,6V85[8:3],,6/1-4[8:1],,1,,
5-8[8:1]/3,,2V41[8:3],,8-5[8:1]/2,,8,,
4b-1[8:1]/7b-4[8:1],,7b/4b,,8bw4[8:1],8,8b,,
4-1[8:1]/7,,6V85[8:3],,6/1-4[8:1],,1,,
5-8[8:1]/2,,3V14[8:3],,8-5[8:1]/3,,8,,
4-1[8:1]/7,,6V85[8:3],,6/1-4[8:1],,1,,
5b-8[8:1]/2b-5[8:1],,2b/5b,,1bw5[8:1],1,1b,,
6,5,6,5,6h[4:1],,,,3,4,3,4,3h[4:1],,,,
7,5,6,4,5,3,4,2,5v2[4:1],,3V15[8:3],,,,,,
7,8,7,8,78,,25,,2,1,2,1,12,,38,,
7-5[8:1]/4-2[8:1],,,,7-5[8:1]/4-2[8:1],,,,
2-4[8:1],,5-7[8:1],,2,,,,
8^5[2:1],,4,,3,,2,,
1^4[2:1],,5,,6,,7,,
8>4[2:1],,5,,6,,7,,
8<4[2:1],,3,,2,,1,,
1V35[2:1],,6,,7,,8,,
1V75[2:1],,3,,2,,1,,{4}
2pp5[4:5]/8pp3[4:5],,,,,,,,
6b<4[1:1],,4,4,4qq1[1:1],,1,1,
1>7[1:1],,7,7,7pp4[1:1],,4,4,
4<1[1:1],,3,2,1<4[1:1],,2,3,
4pp7[1:1],,7,7,7s3[2:1],,,,
8^3[4:1],3^6[4:1],6^1[4:1],1^4[4:1],
4b^7[4:1],7q4[4:1],4q1[4:1],1^4[4:1],
4b^7[4:1],7^2[4:1],2^5[4:1],5^8[4:1],
8bq4[4:1],4q8[4:1],8b>4[4:1],4,{8}
8b,8,1b,1,2b,2,7b,7,{16}
2b,1,2,8,2,7,2,6,3,5,3,6,3,7,3,8,{8}
3h[999:1],,7h[999:1],,3h[999:1],,7h[999:1],28,
8-5[8:1]/2-5[8:1],,2b/8b,,8b-5[8:1]/4b>8[8:1],,4b/8b,,
6V85[4:1],,6/2V41[4:1],,2,,6,7,
8V27[4:1]/2,3,4V63[4:1]/8,,4,,8,,
7V58[4:1]/4,,7/3V14[4:1],,3,,7,6,
5V36[4:1]/3,2,1V72[4:1]/5,,1,,5,,
6V85[4:1],,6/2V41[4:1],,2,,6,7,
8V27[4:1]/2,3,4V63[4:1]/8,,4,,8,,
7V58[4:1]/4,,7/3V14[4:1],,3,,7,6,
5V36[4:1]/4,3,25,,8w4[8:1],,8b,,
2V83[4:1],,2/6V47[4:1],,6,,2,3,
4V25[4:1]/6,7,4/8V61[4:1],,8,,4,,
3V52[4:1],,3/7V16[4:1],,7,,3,2,
1V38[4:1]/7,6,1/5V74[4:1],,5,,1,,
2V83[4:1],,2/6V47[4:1],,6,,2,3,
4V25[4:1]/6,7,4/8V61[4:1],,8,,4,,
3V52[4:1],,3/7V16[4:1],,7,,3s7[4:3],3,
,,,,,,,,
8-6[8:1],4,8,2,8-5[8:1],4,8,2,
8-4[8:1],3,8,1,8-5[8:1],3,8,1,
1-3[8:1],5,1,7,1-4[8:1],5,1,7,
1-5[8:1],6,1,8,1-4[8:1],6,1,8,
7-3[8:1],2,7,8,7-4[8:1],3,7,1,
7-5[8:1],4,7,2,7-4[8:1],3,7,1,
2-6[8:1],7,2,1,2-5[8:1],6,2,8,
2-4[8:1],5,2,7-4[8:1],2-5[8:1],7,2,1,
8-4[16:1],1,2-5[16:1],1,8-4[16:1],1,2-5[16:1],1,
8-4[16:1],1,2-5[16:1],1,6-1[8:1],,,,
1-5[16:1],8,7-4[16:1],8,1-5[16:1],8,7-4[16:1],8,
1-5[16:1],8,7-4[16:1],8,2,2,6,6,
1b/7b,7-3[8:1],7,7b/1b,1-5[8:1],1,1b/8b-4[8:1],8,
8b/2b-6[8:1],1,8-4[8:1]/2b,1,8b/2-5[8:1],1,8b/2b,8,{16}
4,5,6,7,48,15,26,37,{32}4h[2:1]/8,1,2,3,,5,6,7,
8,1,2,3,,5,6,7,{8}8bs4[4:2]*z4[4:2],,,,,,,,
{4}5,6,7,8,1,8,7,6,5,6,7,8,1,8,7,6,
{1}
5b>5[2:3],,,,,,,,,,,
E
