&title=Don't Stop The Music
&artist=Nhato feat. Kanae Asaba
&first=0
&des=TCXLZ
&lv_5=13+
&inote_5=(132){4},,,,
{8},5h[8:4],1,2,3,4-8[8:1],,,,
{16}5,,2,2,,6h[16:3],,,4-1[8:1],,,,,,,,
{16}6,,3,3,,7h[16:3],,,4-2[8:1],,,,,,,,
{16}6,6,,3h[16:5],,4,,,,,,6h[16:6],,5-1[8:1],,,
{8},,,4h[8:3],5-8[8:1],,,,
{16}4,,7,7,,3h[16:7],,,5-1[8:1],,,,,,,,
{16}3,,6,6,,2h[16:5],,,5,,4h[16:4],,,,
3,2,1-5[8:1],,,,8,7,6-2[8:1],,,,5,4,3bw7[16:7],,{4},,,
{8}7h[8:5]/1,,2,2,,3h[8:2],6,6,
{8}64,6,6/4-1[8:1],6,64,6,52,5,52,5,5/2-7[8:1],5,52,5,48,4,48,4,4/8-3[8:1],4,48,4,
{8}5b/1b,,6b/2b,,7bv6[12:1]/3bv2[12:1],,7b/3b,,
{8}26,2,34,3,26,2,34,3,26,2h[16:1],3h[16:1]/4,3,
2h[16:1]/6,2h[16:1],3h[16:1]/4,3,17,1,24,2,17,1,24,2,
{16}1h[16:7]/8,,8,7,6,5,4,3h[16:3],,8,7,6,5,4,3,2,
{4}1b-7[8:1]/5h[8:1],1-3[8:1]/4h[8:1],1-7[8:1]/6h[8:1],1-3[8:1]/4h[8:1],
{4}1-7[8:1]/6h[8:1],1-3[8:1]/4h[8:1],1/6h[8:1],{16}1/4h[8:1],8,7,6,
{4}5h[8:1]/8>2[8:1],4h[8:1]/8<6[8:1],3h[8:1]/8,4h[8:2]/8h[8:2],
{16},,73,62,51,48,3bpp4[16:3]*V14[16:3]/7b,,,,,,,,,,
{16}57,,4-7[8:1],6,3,,4h[16:1],,,,
13,,4,7,4,,46,,3-6[8:1],5,2,,3h[16:1],,,,
82,,3,6,3,,35,,2-5[8:1],4,1,,2h[16:1],,,,
71,,2,5,2,,2/4h[16:2],,2,1,8,7,6,5h[16:2],,7,6,5,4,3,2,1,
{16}8/4b,,3v6[8:1],5,2,,3h[16:1],,,,
82,,3,6,3,,35,,2v5[8:1],4,1,,2h[16:1],,,,
71,,2,5,2,,25,,14,,8/3<6[8:1],,,,
8,1,2<7[8:1],,,,5,4,3<6[8:1],,,,8,1,2b<3[8:10],,,,
{8},,,,,1,,8,7<7[16:17],,7b,,,,,5,,4,
{16},3b,,,,,7h[8:1]/1,,,,8h[8:1]/2,,,,1h[8:1]/3,,,,
2h[8:1]/4,,4h[8:4],,3h[8:1],,,,5h[8:1],,,,6h[8:1]/4,3,2,1h[16:3],
7h[8:1],,,,6h[8:1],,2h[16:1],,5h[8:1]/3h[8:1],,,,4h[8:1]/3,2,1,8h[16:3],
3h[8:1],,,,2h[8:1]/1,,,,1h[8:1]/2,,,,83,,
{24}47,36,25,14,,,,,,52,63,74,85,,,,,,
4-8[12:1]/7,36,25,1h[8:1]/4h[8:1],,,,,,
{16}2-7[8:1],,7>2[8:1],,2>5[8:1],,5V73[8:2],5,,,6h[8:1],,,,
6,5,4h[8:1],,3,,,6,4,8,3,,4,,1,5,2,7h[16:2],,3,2,1,8,7,6b/1bw5[8:2],,
{4},,,4`6h,,4``6h,,3`6h,,2`6h,,1/6h,,1/6h,,1/7h[4:1],,
1v4[8:2]/8h[4:1],,1v6[8:2],,1>4[8:1],
1<6[8:1],1-4[8:1],1-6[8:1],1-5[8:1],1w5[8:1],1,
{16}4b-7[12:1],5,4h[16:2],,,,1b-5[12:1],8,1h[16:2],,,,3b<8[16:8],4,3h[16:10],,,,
{4},,{16}3,8h,3,7h,3,6h,2,5h,1,4h,{32}5h/1,6h/2,7h/3,8h/4,1h,2h,3h,4h,
{8}5bv8[12:1]/1bq5[12:1],,15,,4-1[12:1]/7p3[12:1],38,47,,
{16}14,,2,5,2,6,2,7,2q6[12:1]/8v5[12:1],,37,,2b/8b,,,,
{16}4-7[8:1]/7,,7V52[8:2]/4,,47,,,8h[16:2],,,8h[16:2],,,
{16}72,63,54,,3s7[8:1]/6,27,{16}8h[16:3]/1,,,,,,,7bw3[8:1]/8,,,,7b,,,,,,
{24}52,63,74,85,,,,,,4-8[12:1]/7,36,25,1h[8:1]/4h[8:1],,,,,,
{8}2h[8:1],4h[8:1],6h[8:1],8,
{16}7b/6b,,,1b/8b,,,3bpp4[16:10]*V14[16:10]/4b,,,,,,,,,,,,,,,,,
{16}6h[16:4],,8-5[12:1],1,2,3-7[12:1]*-8[12:1],4b/8b,,,3b,,,6b/1b,,,16,25,
{4}3b-5[8:1]/4h[8:1],3-1[8:1]/6h[8:1],3/4h[8:1],{16}15,26,37,48,
{4}5p1[8:1]/1p5[8:1],5V71[8:1]/1V35[8:1],51,{16}51,48,37,26,
{4}5>3[8:1]/1h[8:1],5<7[8:1]/8h[8:1],5/3h[8:1],{16}73,62,51,48,
{16}3<6[8:1]/7h[16:2],,,,8,1,2,3h[16:2],,7,6,5,4,3,2,1,
{16}84,3,2,18,7,6,5,41,8,7,6,51,8,7,6,5h[16:2]/1,,
1,2,3,41,2,3,4,51,62,73,84,15,2,3,48,,,
15,,,26,,,37,37,,2>5[8:1]/8q5[8:1],,37,,2b/8b,
