&title=テトリス
&artist=柊マグネタイト
&first=0
&des=Chorser VS Kawakaze
&lv_5=13+
&inote_5=(170)
{64},
(340)
{128},,,,,,
(170)
{4},,,,
{4}3h[4:3]/4,2,{8}4,5,6,,
{4}6h[4:3]/5,7,{8}5,4,3,,
{4}3h[4:3]/4,2,{8}4,5,6,,
{4}6h[4:3]/5,{8}7,8,1,2,3,,
{4}3h[4:3]/4,1,{8}4,5,6,,
{4}6h[4:3]/5,8,{8}5,4,3,,
{4}3h[4:3]/4,1,{8}4,5,6,,
{4}6h[4:1]/5,{8}7,8,1<6[8:1],2,3,,
{4}3h[4:2]/5b,2,{16}4,,3,5,3,,,,
{4}6h[4:2]/5,7,{16}5,,6,4,6,,,,
{4}3h[4:2]/4,2,{16}4,,3,5,3,,4,,
{4}5/3h[4:2],{8}2,1,8>3[8:1],7,6,,
{4}6h[4:2]/4,8,{16}5,,6,4,6,,,,
{4}3h[4:2]/4,1,{16}4,,3,5,3,,,,
{4}6h[4:2]/5,8,{16}5,,6,4,6,,5,,
{8}34,2,3h[8:1],1,4h[8:1],1,3h[8:1],Cf,
{4}1/7<3[4:1],3>7[4:1],C,4,
{4}2xb>5[8:1],6xb<1[8:1]/2x,2xb^5[8:1]/6x,2x/7xb,
{4}7>3[4:1],3<7[4:1],C,1,
{4}3xb>8[8:1],7xb<4[8:1]/3x,3xb^8[8:1]/7x,7xb<8b[4:1]/3x,
{4}2xh[4:1]/7x,{8},7,56,4,35,2,
{8}1,1h[8:1],7,7h[8:1],5,5h[8:1],3,3h[8:1],
{4}1-5[8:1],{8},7,6,4,35,35,
{16}2h[16:3],,,4,,,8,,57,,8,,24,,1,,
{16}7h[16:3],,,5,,,1,,42,,18,,57,,,,
{16}1s5[4:1]/8,,,,1/7h[4:1],,,,,,,,45,,27,,
{16}1x/B7/B6/E7/B5,,,,8x/B2/B3/E3/B4,,,,B1/B8/B6/B7/B2/B3/B4/B5/E2/E4/E6/E8,,,,,,,,
{8}1b>6[4:1]/7b,,6V42[4:1],7,8,,1p7[4:1],8,7>4[4:1],,5,6,7q3[4:1],,3^6[4:1],2,1s5[4:1],,1,7,6,,4<8[4:1]/1,,8>4[4:1],,4v2[4:1]*v6[4:1],,,,,,
{8},8pp8[4:1]/2h[8:1],,8<3[4:1],3,,3,2,1h[2:1],2,8,7,7V53[4:1],,7,8,1-5-2[4:1],,1,8,7,,1>5[4:1],,5<1[4:1],,1V35[4:1]*V75[4:1],,,,,,
{8}3b/E8/E6/B7/B6,,6b/E8/B8/B1/E2,,8b/B2/B3/E4/B4,,1b/B5/B6/E6/B7,,2-7[8:1]/7,,2/6-3[8:1],,6/8-5b[8:1],,8/2h[4:1],,4<8[4:1],,3,2,1,,1-5[8:1]/5,,7-3[8:1]/1,,1V35[16:3]*V75[16:3]/7,,1,,,,
{8}2,1qq1[4:1]/7h[8:1],,1>6[4:1],6,,6,7,8h[2:1],7,1,2,2s6[4:1],,6z2b[4:1],7,8<3[4:1],,8,1,2,,1>3[8:1]/5<7[8:1],,1q5[8:1]/5q1[8:1],,1-3<4[8:1]/5-7>8[8:1],,15,,,,
{1}Ch[4:3],
{4}2h[8:2]/6,{16}4,,3,5,3>8[8:1],,{8},4,5,
{8}6,,5/7h[4:1],,{16}1,,2,8,2h[8:1],,4,,
{16}3,4,3,4,3,,6,5,6,5,6,,3,4,3,4,
{8}3h[4:1],1,4h[4:1],1,5h[4:1],8,6h[8:1],1,
{4}7h[8:2]/3,{16}5,,6,4,6<1[8:1],,{8},5,4,
{8}3,,4/2h[4:1],,{16}8,,7,1,7h[8:1],,5,,
{16}6,5,6,5,7,,3,4,3,4,2,,6,5,6,5,
{4}7>3[4:1],3>7[4:1],Cf,,
{8}6h[8:1]/4,2,3h[8:1]/5,7,5>2[8:1]/6,7,56,,
{4}7xb<4[8:1],3xb>8[8:1]/7x,7xb^4[8:1]/3x,7x/2xb,
{8}3h[8:1]/5,7,6h[8:1]/4,2,4<7[8:1]/3,2,43,,
{16}4h[8:1]/5b,,6,,7bx,,8,4,8bx,,1,5,1bx>7b[4:1],,,,
{4}5xh[4:1]/1x,{8},7,56,4,35,6,
{8}2,{16}1,7,1,,{8}7h[8:1],5,5h[8:1],3,3h[8:1],
{4}1s5[4:1],{8},6,7,8,17,26,
{16}5h[16:3]/3,,,2,5,,24,,6h[8:1],,B8/E8,,5h[8:1],,B2/B3,,
{16}4h[16:3]/6,,,7,4,,75,,24,,8,,56,,,,
{16}2q3[4:1]/8,,,,2/7h[4:1],,,,,,,,45,,27,,
{4}1x/E8/E6/B7/B6,8x/E2/E4/B2/B3,E1/E7/E5/E3/B1/B2/B3/B4/B5/B6/B7/B8,,
{8}8b<3[4:1]/2b,,3V57[4:1],2,1,,1q6[4:1],7,6>1[4:1],,8,7,6p2[4:1],,2>6[4:1],1,8z4b[4:1],,8,7,6,,
{8}3^8[8:1]/7^4[8:1],,7q3[8:1]/3q7[8:1],,7V13V57[8:3]/3,,7x/4xh[8:3],,,,
{8},4pp4[4:1]/6h[8:1],,4>7[4:1],7,,7,6,5h[2:1],6,4,3,3V15[4:1],,5-2[8:1],6,7V58[4:1],,1,2,3,,
{8}4>1[8:1]/8<5[8:1],,8-3[8:1]/4-7[8:1],,4/8V24V68[8:3],,4xh[8:3]/8x,,,,
{8}2b/E8/B7/B6/E6,,6b/E2/E4/B2/B3,,1b/B7/B6/E6/B5,,8b/B4/B3/E4/B2,,7-2[8:1]/2,,7/3-6[8:1],,3/1-4b[8:1],,1/7h[4:1],,5>1[4:1],,7,6,5,,
{8}8-4[8:1]/4,,6-2[8:1]/8,,3V57-1b[8:2]/6,,7h[8:3]/3,,,,
{8}6,5qq5[4:1]/3h[8:1],,5<2[4:1],2,,2,3,4h[2:1],3,5,6,6-8-3[4:1],,3-1-6b[4:1],4,5>8[4:1],,5,7,6,,5<7[8:1]/1>3[8:1],,5q1[8:1]/1q5[8:1],,5-7>8[8:1]/1-3<4[8:1],,51,,Cf,,
{4}7<5[8:1]/3h[8:1],{24}37,2,1,8,7,6,5<8[8:1]*>2[8:1],,,,,,5,,,,,,
{4}7h[8:1]/3>1[8:1],{24}37,6,5,4,3,2,1<6[8:1]*>4[8:1],,,,,,1,,,,,,
{8}2>8[4:1],2,6<4b[4:1],6,{4}4<7[8:1],7,
{32}1bx/5bhx[2:1],2,3,4,,6,7,8,1bx,2,3,4,,6,7,8,1bx,,,,,,,,{8}26,26,
{8}2>8[4:1],2,6<4b[4:1],6,,,{24}7,8,1,2,3,4,{8}5/2>4[8:1],2,
{8},5,5<8[8:1],,5<3b[4:1],4,3>8[8:1],,4,3,2>5[8:1]*<7[8:1],,2b,,
{32}8bx/4bhx[2:1],7,6,5,,3,2,1,8bx,7,6,5,,3,2,1,8bx,,,,,,,,{8}73,73,
{4}7<5[8:1]/3h[8:1],{24}37,2,1,8,7,6,5>2[8:1]/8<5[8:1],,,,,,58,,,,,,
{4}8h[8:1]/4<6[8:1],{24}84,1,2,3,4,5,1<6[8:1]/6>3[8:1],,,,,,16,,,,,,
{8}2>8[4:1],2,6<4b[4:1],6,{4}4<7[8:1],7,
{32}1bx/5bhx[2:1],2,3,4,,6,7,8,1bx,2,3,4,,6,7,8,1bx,,,,,,,,{8}26,26,
{8}7<1[4:1],7,3>5b[4:1],3,,,{24}2,1,8,7,6,5,{8}4/7<5[8:1],7,
{8},4,4>1[8:1],,4>6b[4:1],5,6<1[8:1],,5,6,7<4[8:1]*>2[8:1],,7b,,
{32}1bx/5bhx[2:1],2,3,4,,6,7,8,1bx,2,3,4,,6,7,8,1bx,,,,,,,,{8}26,26,
{8}7<1[4:1],7,3>5b[4:1],3,,,{24}2,1,8,7,6,5,{8}4/7<5[8:1],7,
{8},4,4>1[8:1],,4>6b[4:1],5,6<1[8:1],,5,6,7<4[8:1]*>2[8:1],,7b,,
{24}2bx/6bx,3x/7x,4x/8x,,,,2bxV46b[16:3]/6bxV82b[16:3],1x/5x,4x/8x,,,,2bx/6bx,
