&title=ブラックアウト(Black Out)
&artist=東京事変
&first=0
&des=浮雲
&lv_5=13+
&inote_5=(168){4},,,,4/6,
{8}3,5,4,5,3h[4:1],4,
{4}4-6[8:1],2,{8}4,5,3h[4:1],4,
{4}4-6[8:1],2,{8}4,6,3h[4:1],4,
{4}4-6[8:1],2,{8}4,7,3h[4:1],4,
{4}4-1[8:1],6,{8}4,2,6h[4:1],5,
{4}5-3[8:1],7,{8}4,3,6h[4:1],5,
{4}5-3[8:1],7,{8}5,3,6h[4:1],5,
{4}5-8[8:1],3b,{16}7,4,{8}7,{16}3,5,3,5,
{8}2b-5[8:1],6,{4}6,{8}7-3[8:1],3,3,2,
{4}2-5[8:1],{8}6,6,8-4[8:1],4,{4}8,
{8}3-8[8:1],5,{4}5,{8}6-2[8:1],2,2,3,
{4}3-8[8:1],3b/4b,{16}5,1,5,1,6,2,7,3,
{8}
8,,4,6,5,4,6h[8:2],5,5-3[8:1],,6,
,5,4,6h[8:2],5,5pp4[8:3],,2h[8:1],,2h[8:1],,
2h[8:4],4h[8:2],,,6h[8:4],4h[8:2],,,,2,4-6[8:1],,2,
,4,6,3h[8:2],4,4-6[8:1],,2,,4,6,3h[8:2],4,4qq5[8:3],,7h[8:1],,7h[8:1],,
7h[8:2],5h[8:1],,,3b/4b,,
{16}2,5,2,5,3,6,4,7,
{4}5qq3[32:5],6,{8}4<6[8:1],3,{4}2,
1p4[4:1],1h[2:1],,3b,
4pp6[32:5],3,{8}5>3[8:1],6,{4}7,
8p2[4:1],8h[2:1],,1b,
{8}2/4,3,7/5,6,{4}2-4[8:1]/4-1[8:1],2/4,
5-8[8:1],{8}7,7-5[8:1],,1b,,1b,
{4}3<1[2:1],{8}2,2,3,4,5,6b<4[16:5],
{4},{8}5,5h[4:1],,{16}6,7,8,1,2,3,
{4}7b-4[8:1]/4b-8[8:1],7/4,{8}2,{16}4,3,{8}5,6-1[8:1]/4,
,3-5[8:1],,6-1[8:1],,3>5[4:1],,3b,
{4},{8}7-4[8:1],5-1[8:1]/4-7[8:1],{2},{8}1/7,
1-5[8:1]/7-4[8:1],,1b/7b,{4},3-6[16:2],
{2}3b/6b,{8}7,{16}5,6,{8}4,3-8[8:1]/5,
,6-4[8:1],,3-8[8:1],,6<4[4:1],,6b,
{4},{8}1-5[8:1],3-8[8:1]/5-1[8:1],{2},{8}1/8,
8-3[8:1]/1-5[8:1],,1b/8b,{4},7-3[8:1],
7b/3b,{8}1,1,{16}4-1[8:1],2,{8}6,4,7-3[8:1],
,7,4,4-1[8:1],,7>5[4:1],,7b,
{4},{8}6-1[8:1],8-4[8:1]/1-6[8:1],{2}6>8[16:5],
{8}6,6-2[8:1]*-1[8:1],,6b,{4},2-6[8:1],
2b/6b,{8}8,8,{16}5-8[8:1],7,{8}3,5,2>5[8:1],
1,6p4[16:5],7,3,2,1h[4:1],,{32}4b,3,2,1,
8,7,6,5,4,3,2,1,8,7,6,5,4,3,{16}2,8,6,4,2,{4}8b,
{8}7-3[8:1],,7,2-5[8:1],,2,{4}6>1[4:1],
7,{8}8,8-4[8:1],,8,{4}2-5[8:1],
2/6>1[4:1],{8}7,7-4[8:1],,7,{4}2-6[8:1],
2/6,1/8,{16}2,7,4,5,3,6,4,5h[4:3],
{4}3h[16:11],{2},{4}3-5[10:1],
3b/5b,{8}6,5,7/4,6,5,6/4,
5,6,7-3[8:1],7,8,1,2-5[8:1]*-6[8:1],2,
{4},{8}7/4,3,2/5,3,2/4,5,
1-5[8:1],2,6-1[8:1],7,4-8[8:1],3,{4}6-1[8:1]*-2[8:1],
6,{8}3/8,4,6,7/4,3,5,
3-7[8:1],3,4,5,6-1[8:1],6,4,3,
2-5[8:1],1,7-4[8:1],8,2-5[8:1],1,7-4[8:1],8,
{4}1w5[8:1],1b,{16}7,4,7,4,6,3,5,2,
{4}4-8[8:1],3/4,{8}1-6[8:1],7,{4}1,
5-1[8:1],6/5,{8}8-3[8:1],2,{4}8,
{8}4-8[8:1],3,7-4[8:1],6,1-6[8:1],2,{4}7,
5-3[8:1],7-5[8:1],{8}1w5[8:1],1,{4}1,
3-8[8:1],2/3,{8}1-5[8:1],7,{4}1,
6-1[8:1],7/6,{8}8-4[8:1],2,{4}8,
{16}3,4,{8}3,{16}6,5,{8}6,{16}3,4,{8}2,{16}6,5,{8}7,
{24}3h,4,5h,6,{12},{8}8z4[8:29],1>8[1:8],{1},,,,{4},,{32},1>4[32:107],
{1},,,{4},,,{16},,,{4}1-5[8:1],
1b,{16}8,4,6,2,{8},5b-3[10:1],
,5b/2b-6[10:1],,2b/7b-1[10:1],,7b,,{16}2,4,
3,7,5,6,3,4,2,6,5,8,{8}3,{4}1/2,
{8}3-7[8:1],7-4[8:1]*-3[8:1],{4}3<1[16:5],{8},2b,4b,6b,8bw4[8:1],,
{8},,3,2-5[8:1],6,8-4[8:1],
,3q5[16:5],2,6,7,8h[4:1],,{32}5b,6,7,8,
1,2,3,4,5,6,7,8,1,2,3,4,5,6,{16}7,1,3,5,7,{4}1b,
{8}1/5,{16}2,4,{8}3,5,6/1,{16}2,4,3,5,4,6,
{4}5b-1[8:1],{8}7,8b-3[8:1],,8/2,{4}4<3[8:3],
{8}8b/4b,{4},{8}5-1[8:1],,3,{4}4<2[16:5],
6b/4b,5,{8}2/4,3,7/5,6,
4/2-6[2.1429##6.1607]*-6[2.1429##6.1607],6h[16:8],3,4h[8:7],,,,8h[8:4],
{2},{16}4b,8,4,8,4,8,4,8,
4,8,4,8,4,8,4,8,4,8,4,8,4,8,4,8,
4,8,4,8,4,8,4,8,4,8,4,8,4h[64:1],8,4h[64:1],8,
4,8,4,8,4h[64:1],8,4,8,4,8,4,8,4h[64:1],8,4h[64:1],8,
4,8,4,8,4h[64:1],8,4,8,{4}2b,{8}7,5,
6h[8:1],5h[8:1],4h[8:1],3h[8:1],5,{16}5,4,{8}6,3,
3h[8:1],4h[8:1],5h[8:1],6h[8:1],4,{16}4,5,{8}3,{16}6,5,
{8}7,{16}3,4,{8}2,{16}8,1,7,8,1,2,7,8,1,2,
{24}6,7,8,1,2,3,6,7,8,1,2,3,{16}7,6,5,4,3,4,5,6,
7,6,5,4,{8}3-5[8:1],3,6-3[8:1],7,2-6[8:1],1,
7-4[8:1],8,3,3,{16}5,6,2,3,6,7,3,4,
7,5,7,5,6,4,6,4,{8}5h[4:1],1,3h[4:1],1,
{24}7,6,5,4,,,{4}1bw5[8:1],1,{8}7/3,7/3,
{16}6,5,{8}6,7/2,7/2,{4}4/3,{8}6/2,6/2,
{16}3,4,{8}3,{4}8/1,{8}2>5[8:1],1,8-4[8:1],7,
1-3[8:1],2,5-1[8:1],6,2-4[8:1],3,8<5[8:1],7,
{16}4,3,2,1,{4}8-3[8:1]*-5[8:1],8h[64:1],{8}2/6,1,
7,{24}4,5,3,{8}4,2,{4}8h[8:1]/3h[8:1],{8}7,6,
5,6,5,4,3/5,2,6/4,7,
3/4,1,6/5,8,2-4[8:1],4-1[8:1],1-5[8:1],1,
{4}8w4[8:1],8,{8}2/6,2/6,3,8,
2,{24}5,4,6,{8}5,7,{4}1h[8:1]/6h[8:1],{8}2,3,
4,3,4,5,{12}4/6,4,4,6,6,6,
5,5,5,8,8,8,{32}4,3,2,1,8,7,6,5,4,3,2,1,8,7,6,5,
{16}4-8[9:1],{16},7<8[16:33],{4}7b>6[1:2],,,,,,,,,,
{16},{8}7,7,,,7,,,,7,7,,,{48}2/5,,3/6,
E
