&title=八月のレイニー
&artist=はるまきごはん
&first=0.08
&des=拔丝Rainy
&lv_5=13
&inote_5=(185)
{1},,,
{2},
{64},,
{8}3/6,2/7,1/8,
{64},,,,,,
{8}3,4,2,6,5,7,2-4[8:1],2,7-3[8:1],7,1-6[8:1],1,8-4[8:1],8,,,
{8}6,5,7,3,4,2,7-5[8:1],7,2-6[8:1],2,8-3[8:1],8,1-5[8:1],1,,,
{8}3,4,2,6,5,7,2-4[8:1],2,7-3[8:1],7,1-6[8:1],1,8-4[8:1],8,,,
{8}3,4,2,5,1,6,8,7,
{4}8w4[8:1],,1w5[8:1],,
{8}3,4,2,5,1>5[2:1],,6,6h[8:7],
{4},,,
{8}2,,3/4,,7,5/6,,,3/6,4-1[8:1]/5-8[8:1],,,,,,2,2,,
{8}6,5,7,4,8<4[2:1],,3,3h[8:7],
{4},,,
{8}7,,6/5,,2,4/3,,6,,5-1[8:1]/4-8[8:1],,,,,,7,7,7,
{8}3,4,2,5,1-5-7-3[2:1],,6,6h[8:5],
{4},,
{8},4,3,2,1>4[8:1],,7-2[8:1],7,3-6[8:1],3,5<8[8:1],5,
{8},,,,2,3,4/5,,
{8}3,4,2,5,1>5[2:1],,6,6h[8:7],
{4},,,
{8},,3,3,4,4,5,5,6<3[2:1],6,
{4},,,
{8}1,1,
{4}2-5[8:1]/7,2/7-3[8:1],1-6[8:1]/7,
{8}8/1,8,,2/7,,3,4>1[8:1]/5<8[8:1],,,,
{4}7-4[8:1]/2,7/2-6[8:1],8-3[8:1]/2,
{8}1/8,1,,7/2,,6,5h[4:1]/4h[4:1],,,,
{4}3-8[8:1]/6,3/6-2[8:1],4-7[8:1]/6,
{8}5/4,5,,3/6,,2,1/8,2/7,3/6,,
{4}6-1[8:1]/3,6/3-7[8:1],5-2[8:1]/3,
{8}4/5,4,,2,1,8,7,,2,2,
{4}8-6[4:1]*-3[4:1],8,,,
{4}1-3[4:1]*-6[4:1],1,,,
{4}5qq5[2:1]*pp5[2:1],5,,,
{4}4pp4[2:1]*qq4[2:1],4,,,
{4}1pp4[1:1]/8qq5[1:1],1/8,,,
{4},,
{4}7<4[4:1],4>1[4:1],1<6[4:1],
{8}4,4h[8:3],,,,,
{4}4/5,3/6,2h[8:1]/7h[8:1],,
{8}4-1[8:1]/8,,6,5,4-7[8:1]/8-3[8:1],,,,
{8}4-1[8:1]/8,,6,5,4-7[8:1]/8-3[8:1],,,,
{8}4-1[8:1]/8,,6,5,4-7[8:1]/8-3[8:1],,,,
{8}4-1[8:1]/8,,6,5,4-7[8:1]/8-3[8:1],,,,
{4}1>4[8:1]/8,8<5[8:1]/1,1>4[8:1]/8,8<5[8:1]/1,1>4[8:1]/8,
{8}1/8,7,6,,4/5,,
{4}8<5[8:1]/1,1>4[8:1]/8,8<5[8:1]/1,1>4[8:1]/8,8<5[8:1]/1,
{8}8/1,2,3,,4/5,,
{8}5-8[8:1]/1,,3,4,5-2[8:1]/1-6[8:1],,,,
{8}5-8[8:1]/1,,3,4,5-2[8:1]/1-6[8:1],,,,
{8}5-8[8:1]/1,,3,4,5-2[8:1]/1-6[8:1],,,,
{8}5-8[8:1]/1,,3,4,5-2[8:1]/1-6[8:1],,,,
{4}1-3[8:1]/8-4[8:1],8-6[8:1]/1-5[8:1],1-3[8:1]/8-4[8:1],8-6[8:1]/1-5[8:1],1>3[8:1]/8q4[8:1],8<6[8:1]/1p5[8:1],1>3[8:1]/8q4[8:1],8/1w5[8:1],
{1}1b,,
{8}B3,B4,B5,B6,,B7,,C,,B3,,E3,E7,E1,E5,,
{1},,
{8}B6,B5,B4,B3,B2,,B1,C,,B5,,E7,E3,E1,E5,,
{1},,
{8}5,5,3,3,,2>6[4:1]/6,,2/6>2[4:1],,7,,7,6,5,4/1,,
{8}3,,2/5,,3,4,2/5,,6,,4/7,6,5,6,5/7,,
{8}4,4,6,6,7<3[4:1]/3,,7/3<7[4:1],2,,2,,2,3,4,5/7,,
{8}4/5,4/5,3/6,3/6,2/7,2/7,1/8,1/8,,3/6,1-4[8:1]/8-5[8:1],,1b/8b,,,,
{8}4-1b[8:1]/8,,6/4,5,4-7[8:1]/8-3[8:1],,4/8,,
{8}4-1b[8:1]/8,,6/4,5,4-7[8:1]/8-3[8:1],,4/8,,
{8}4-1b[8:1]/8,,6/4,5,4-7[8:1]/8-3[8:1],,4/8,,
{8}4-1b[8:1]/8,,6/4,5,4-7[8:1]/8-3[8:1],,4/8,,
{4}4>1[8:1]/8,8<5[8:1]/4,4>1[8:1]/8,8<5[8:1]/4,4>1b[8:1]/8,
{8}8/4,7,6,,1/8,,
{4}5<8[8:1]/1,1>4[8:1]/5,5<8[8:1]/1,1>4[8:1]/5,5<8b[8:1]/1,
{8}1/5,2,3,,5/4,,
{8}5-8b[8:1]/1,,3/5,4,5-2[8:1]/1-6[8:1],,5/1,,
{8}5-8b[8:1]/1,,3/5,4,5-2[8:1]/1-6[8:1],,5/1,,
{8}5-8b[8:1]/1,,3/5,4,5-2[8:1]/1-6[8:1],,5/1,,
{8}5-8b[8:1]/1,,3/5,4,5-2[8:1]/1-6[8:1],,5/1,,
{4}1-3[8:1]/8-4[8:1],8-6[8:1]/1-5[8:1],1-3[8:1]/8-4[8:1],8-6[8:1]/1-5[8:1],1>3[8:1]/8q4[8:1],8<6[8:1]/1p5[8:1],1>3[8:1]/8q4[8:1],1/8,
{8}1b/8b,,1/8,1/8,2/7,2/7,3/6,3/6,
{16}4,5,4,5,3,6,3,6,2,7,2,7,1,8,1,8,
{8}1h[1:1],,,,,8,8,,2h[1:1],,,,,1,1,,3h[1:1],,,,,2,2,,4h[1:1],,3,3,,3,3,3,
{8}5h[1:1],,4,,,4,4,,6h[1:1],,5,,,5,5,,7h[4:1],,8,8z4[8:1]*-5[8:1],,8b,E
